Zhongkui Snow Girl and the Dark Crystal (2015) Dual Audio 720p HDRip [Hindi Chinese] 1Gb

Zhongkui Snow Girl and the Dark Crystal (2015) Dual Audio 720p HDRip [Hindi Chinese]
Zhongkui Snow Girl and the Dark Crystal (2015) Hindi Posters,pics,images,screeshots
Zhongkui Snow Girl and the Dark Crystal (2015) Dual Audio 720p HDRip [Hindi Chinese],Download Zhongkui (201) Hindi full movie in hd for free,download Zhongkui Snow Girl and the Dark Crystal (2015) Hindi movie in hd 720p,Zhongkui Snow Girl and the Dark Crystal (2015) Hindi full movie download in hd print,download Zhongkui Snow Girl and the Dark Crystal (2015) Hindi Dual Audio,Dual Audio Movie HD, Download Hollywood Movie In Dual Audio, Download Zhongkui Snow Girl and the Dark Crystal (2015) Hindi 1Gb, Zhongkui Snow Girl and the Dark Crystal (2015) Hindi movie in 1080p 720p 480p,Zhongkui Snow Girl and the Dark Crystal (2015) Hindi movie download full hd in 300 mb,Zhongkui Snow Girl and the Dark Crystal (2015) Hindi movie download in 300MB,Zhongkui Snow Girl and the Dark Crystal (2015) Hindi full movie download in hd for pc for free,Zhongkui Snow Girl and the Dark Crystal (2015) Movie In hd, Download Zhongkui Snow Girl and the Dark Crystal (2015) Movie iN Full hd,Download Zhongkui Snow Girl and the Dark Crystal (2015) movie in 300mb,Snow Girl and the Dark Crystal (2015) Movie in full Hd in Hindi in 300mb,

Zhongkui Snow Girl and the Dark Crystal (2015) Dual Audio 720p HDRip [Hindi Chinese]
Zhongkui Snow Girl and the Dark Crystal (2015) Hindi Posters,pics,images,screeshots

IMDB Ratings: 5.4/10
Directed: Tianyu Zhao
Released Date: 19 February 2015 (China)
Genres: Action, Fantasy, Romance
Languages: Hindi + Chinese
Film Stars:  Kun Chen, Bingbing Li, Winston Chao
Movie Quality: 720p HDRip
File Size: 1Gb

Storyline==}} Legendary Chinese anti-hero Zhong Kui, a young man endowed with mysterious powers who is forced into a battle among the realms of Heaven, Earth and Hell in the course of his attempt to save his countrymen and the woman he loves.

Zhongkui Snow Girl and the Dark Crystal (2015) Dual Audio 720p HDRip [Hindi Chinese]
Zhongkui Snow Girl and the Dark Crystal (2015) Hindi Posters,pics,images,screeshots
Zhongkui Snow Girl and the Dark Crystal (2015) Dual Audio 720p HDRip [Hindi Chinese]
Zhongkui Snow Girl and the Dark Crystal (2015) Hindi Posters,pics,images,screeshots

Zhongkui Snow Girl and the Dark Crystal (2015) Dual Audio 720p HDRip [Hindi Chinese]

Download Links

Download From Openload
Download From Clicknupload
Download from Desiupload

Video And Audio Full Details (Properties)

General
Zhongkui Snow Girl and the Dark Crystal (2015) Dual Audio 720p HDRip [Hindi Chinese].mkv
Format : Matroska
Format version : Version 4 / Version 2
File size : 1.01 GiB
Duration : 1 h 57 min
Overall bit rate : 1 228 kb/s
Movie name : Zhongkui Snow Girl and the Dark Crystal (2015) Dual Audio 720p HDRip [Hindi Chinese]
Video
ID : 1
Format : AVC
Format/Info : Advanced Video Codec
Format profile : [email protected]
Format settings : CABAC / 5 Ref Frames
Format settings, CABAC : Yes
Format settings, RefFrames : 5 frames
Codec ID : V_MPEG4/ISO/AVC
Duration : 1 h 57 min
Bit rate : 1 152 kb/s
Width : 1 280 pixels
Height : 532 pixels
Display aspect ratio : 2.40:1
Frame rate mode : Constant
Frame rate : 25.000 FPS
Color space : YUV
Chroma subsampling : 4:2:0
Bit depth : 8 bits
Scan type : Progressive
Bits/(Pixel*Frame) : 0.068
Stream size : 964 MiB (93%)
Title : Zhongkui Snow Girl and the Dark Crystal (2015) Dual Audio 720p HDRip [Hindi Chinese]
Language : Hindi
Default : Yes
Forced : No

Audio #1
ID : 2
Format : AAC
Format/Info : Advanced Audio Codec
Format profile : LC
Codec ID : A_AAC-2
Duration : 1 h 57 min
Bit rate : 32.5 kb/s
Channel(s) : 2 channels
Channel positions : Front: L R
Sampling rate : 44.1 kHz
Frame rate : 43.066 FPS (1024 SPF)
Compression mode : Lossy
Stream size : 27.3 MiB (3%)
Title : Zhongkui Snow Girl and the Dark Crystal (2015) Dual Audio 720p HDRip [Hindi Chinese]
Language : Hindi
Default : Yes
Forced : No

Audio #2
ID : 3
Format : MPEG Audio
Format version : Version 1
Format profile : Layer 3
Format settings : Joint stereo / MS Stereo
Codec ID : A_MPEG/L3
Codec ID/Hint : MP3
Duration : 1 h 57 min
Bit rate mode : Constant
Bit rate : 48.0 kb/s
Channel(s) : 2 channels
Sampling rate : 44.1 kHz
Frame rate : 38.281 FPS (1152 SPF)
Compression mode : Lossy
Stream size : 40.4 MiB (4%)
Title : Zhongkui Snow Girl and the Dark Crystal (2015) Dual Audio 720p HDRip [Hindi Chinese]
Language : Chinese
Default : No
Forced : No

Visit Our Other Popular Post To Related This

Download Nawabzaade (2018) Hindi 720p HDRip x264 950Mb
Download Surya Ka Yaarana 2018 Hindi Dubbed 720p HDRip 1.1GB
Download Saheb Biwi Aur Gangster 3 2018 Hindi 350MB HDRip 480p
Download Saheb Biwi Aur Gangster 3 2018 Hindi 720p HDRip 1Gb
Download Batti Gul Meter Chalu 2018 Hindi PreDvd Rip 700MB
Download Laila Majnu 2018 Hindi DVDScr 700MB x264 Full Movie
Download Mitron 2018 Hindi DVDScr 700 MB Free Moviesjug
Download Manmarziyaan 2018 Hindi pDVDRip 700MB- Moviesjug
Download Genius (2018) Propper Audio Hindi 720p HDRip x264 1.4GB ESubs
Rampage (2018) Dual Audio ORG 720p BRRip Hindi English DD 5.1ch 1GB
Download Ant Man and the Wasp 2018 Dual Audio Hindi English 480p HDTC 300mb
Click Here For Bing.com Searchengine
Click Here For Google.co.in
Click Here For Youtube.com

Zhongkui Snow Girl and the Dark Crystal (2015) Dual Audio 720p HDRip [Hindi Chinese]

Zhongkui Snow Girl and the Dark Crystal (2015) Dual Audio 720p HDRip [Hindi Chinese]

Leave a Reply

Your email address will not be published. Required fields are marked *