WWE Smackdown Live 11 September 2018 HDTV 720p 900 MB

WWE Smackdown Live 11 September 2018 HDTV 720p 900 MB
WWE Smackdown Live Posters,pics,images,screeshots,

WWE Smackdown Live 11 September 2018  download in hd for free, download wwe smackdown live 11 september 2018 sep 2018 for mobile in hd, download wwe smackdown live 11 september 2018 720 in 500mb 300mb, wwe smackdown  2018 full show download in hd for pc,wwe smackdown download 300mb for mobile 3.9.2018 3 sep 2018, download wwe smackdown,wwe smackdown download in full hd for mobile,wwe smackdown download in hd 720p for pc mobile,WWE Smackdown Live 11 September 2018 HDTV 720p 900 MB,wwe smackdown videos download,wwe smackdown live today,wwe smackdown 2018 live,wwe shows download sites,wwe full show download mp4,wwe smackdown videos download

WWE Smackdown Live 11 September 2018 HDTV 720p 900 MB
WWE Smackdown Live Posters,pics,images,screeshots,

Event Name: WWE Smackdown Live 11 September 2018
Release.Date : 11.09.2018
Air.Date : 10.09.2018
Genre: Wrestling | Sport | Entertainment
Language: English
Country:India
Quality: HDTV 720p 900 MB
Size: 900 MB

Storyline==}} WWE Smackdown is Weekly sports show, with frequent commentary, interviews, side plots and hype.(WWE Smackdown Live 11 September 2018 HDTV 720p 900 MB
)

WWE Smackdown Live 11 September 2018 HDTV 720p 900 MB
WWE Smackdown Live Posters, pics,images, screeshots

Download Links

Download From Openload 900 MB

Download from Clicknupload 1.20GB
Download From Desiupload 1.20GB

WATCH ONLINE

Watch Online From Openload.co 

Video And Audio Full Details (Properties)

General

WWE Smackdown Live 11 September 2018 HDTV www.Moviesjug.net 720p 900 MB.mkv 
Format : Matroska 
Format version : Version 4 / Version 2 
File size : 1.22 GiB 
Duration : 1 h 21 min 
Overall bit rate : 2 132 kb/s

Video

ID : 1 
Format : AVC 
Format/Info : Advanced Video Codec 
Format profile : [email protected] 
Format settings : CABAC / 3 Ref Frames 
Format settings, CABAC : Yes 
Format settings, RefFrames : 3 frames 
Codec ID : V_MPEG4/ISO/AVC 
Duration : 1 h 21 min 
Bit rate : 2 002 kb/s 
Width : 1 280 pixels 
Height : 720 pixels 
Display aspect ratio : 16:9 
Frame rate : 29.970 (29970/1000) FPS 
g[/url] 
Bit depth : 8 bits 
Scan type : Progressive 
Bits/(Pixel*Frame) : 0.072 
Stream size : 1.15 GiB (94%) 
Title : Downloaded From www.Moviesjug.net 
Language : English 
Default : Yes 
Forced : No

Audio

ID : 2 
Format : AAC 
Format/Info : Advanced Audio Codec 
Format profile : LC 
Codec ID : A_AAC-2 
Duration : 1 h 21 min 
Bit rate : 128 kb/s 
Channel(s) : 2 channels 
Channel positions : Front: L R 
Sampling rate : 44.1 kHz 
Frame rate : 43.066 FPS (1024 SPF) 
Compression mode : Lossy 
Delay relative to video : -33 ms 
Stream size : 75.0 MiB (6%) 
Title : Downloaded From www.Moviesjug.net 
Language : English 
Default : Yes 
Forced : N 

Visit Our Other Popular Post To Related This


Download WWE Hell In A Cell 2018 PPV HDTV 720p – Moviesjug
Download Manmarziyaan 2018 Hindi pDVDRip 700MB- Moviesjug
Download Genius (2018) Hindi 480p HDRip x264 400 MB ESubs
Download Genius (2018) Hindi 720p HDRip x264 1.4GB ESubs
Download Robot 2.0 2018 Hindi Dubbed Teaser In HD 1080p 720p 480p 360p
Click Here For Download WWE Monday Night Raw 10 September 2018 HDTV 480p 700mb 

Download Kanchana 3 (Anando Brahma) (2018) Hindi Dubbed 480p HDRip 400 MB
Download Ant Man and the Wasp 2018 Dual Audio Hindi English 480p HDTC 300mb
Sanju (2018) v2 Hind 700MB Pre-DVDRip (Cleaned) x264 AAC
Rampage (2018) Dual Audio ORG 720p BRRip Hindi English DD 5.1ch 1GB
Click Here For Bing.com Searchengine
Click Here For Google.co.in
Click Here For Youtube.com

WWE Smackdown Live 11 September 2018 HDTV 720p 900 MB

WWE Smackdown Live 11 September 2018 HDTV 720p 900 MB

 

 

Leave a Reply

Your email address will not be published. Required fields are marked *