WWE Monday Night Raw 24 September 2018 HDTV 800mb

WWE Monday Night Raw 24 September 2018 HDTV 800mb
WWE Monday Night Raw 24 september 2018 Posters,pics,images,screeshots

WWE Monday Night Raw 24 September 2018 HDTV 800mb download in hd for free, download 24 September 2018 for mobile in hd, download wwe 24 September 2018 720 in 500mb 300mb, wwe raw full show download in hd for pc,wwe raw download 300mb for mobile 24.9.2018 3 sep 2018, download wwe raw,raw download in full hd for mobile,wwe minday night raw download in hd 720p for pc mobile,24 September 2018,DOWNLOAD WWE 24 SEP 2018 DOWNLOAD WWE MONDYA night raw 24 september 9xmovies downloadhub world4ufree,download wwe raw 24 september 2018 in 500 mb

WWE Monday Night Raw 24 September 2018 HDTV 800mb
WWE Monday Night Raw 24 september 2018 Posters,pics,images,screeshots.

Show Name: WWE Monday Night Raw 24 September 2018 HDTV 800mb
Release.Date : 24 September 2018
Air.Date: 23 September 2018
Genre : Wrestling | Sport | Entertainment
Language: English
Country: America
Quality:  HDTV
Size: 800 MB

Storyline==}} The superstars of World Wrestling Entertainment’s “RAW” brand collide each and every week on WWE Monday Night RAW, broadcast once again each and every week on the USA cable network.

WWE Monday Night Raw 24 September 2018 HDTV 800mb
WWE Monday Night Raw 24 september 2018 Posters,pics,images,screeshots,
WWE Monday Night Raw 24 September 2018 HDTV 800mb
WWE Monday Night Raw 24 september 2018 Posters,pics,images,screeshots

WWE Monday Night Raw 24 September 2018 HDTV 800mb

Download Links

Download From Openload.co
Download from Clicknupload
Download From Desiupload

Video And Audio Full Details (Properties)

WWE Monday Night Raw 24 September 2018 HDTV 800mb

General
www.Moviesjug.net WWE Monday Night Raw 10 September 2018 HDTV 480p 700mb.mkv
Format : Matroska
Format version : Version 4 / Version 2
File size : 800 MiB
Duration : 2 h 14 min
Overall bit rate : 832 kb/s

Video
ID : 1
Format : AVC
Format/Info : Advanced Video Codec
Format profile : [email protected]
Format settings : CABAC / 2 Ref Frames
Format settings, CABAC : Yes
Format settings, RefFrames : 2 frames
Codec ID : V_MPEG4/ISO/AVC
Duration : 2 h 14 min
Bit rate : 701 kb/s
Width : 848 pixels
Height : 480 pixels
Display aspect ratio : 16:9
Frame rate mode : Constant
Stream size : 674 MiB (84%)
Language : English
Default : Yes
Forced : No

Audio
ID : 2
Format : AAC
Format/Info : Advanced Audio Codec
Format profile : LC
Codec ID : A_AAC-2
Duration : 2 h 14 min
Bit rate : 128 kb/s
Channel(s) : 2 channels
Channel positions : Front: L R
Sampling rate : 44.1 kHz
Frame rate : 43.066 FPS (1024 SPF)
Compression mode : Lossy
Delay relative to video : -33 ms
Stream size : 123 MiB (15%)
Title : Downloaded From www.Moviesjug.net
Language : English
Default : Yes
Forced : No

Visit Our Other Popular Post To Related This

Download WWE Hell In A Cell 2018 PPV WebRip 1.5 GB
Download WWE Hell In A Cell 2018 PPV WEBRip 480p x264 800MB
WWE Monday Night Raw 10 September 2018 HDTV 480p 700mb
WWE Monday Night Raw 17 September 2018 HDTV 480p 500mb
Download WWE Hell In A Cell 2018 PPV HDTV 720p – Moviesjug
Download Manmarziyaan 2018 Hindi pDVDRip 700MB- Moviesjug
Download Genius (2018) Hindi 720p HDRip x264 1.4GB ESubs
Download Genius (2018) Hindi 480p HDRip x264 400 MB ESubs
Download Robot 2.0 2018 Hindi Dubbed Teaser In HD 1080p 720p 480p 360p
Download Kanchana 3 (Anando Brahma) (2018) Hindi Dubbed 480p HDRip 400 MB
Download Ant Man and the Wasp 2018 Dual Audio Hindi English 480p HDTC 300mb
Sanju (2018) v2 Hind 700MB Pre-DVDRip (Cleaned) x264 AAC
Rampage (2018) Dual Audio ORG 720p BRRip Hindi English DD 5.1ch 1GB
Click Here For Bing.com Searchengine
Click Here For Google.co.in
Click Here For Youtube.com

WWE Monday Night Raw 24 September 2018 HDTV 800mb

WWE Monday Night Raw 24 September 2018 HDTV 800mb

WWE Monday Night Raw 24 September 2018 HDTV 800mb

 

 

Leave a Reply

Your email address will not be published. Required fields are marked *