Venom 2018 Web-DL 720p Dual Audio [Hindi Eng] AAC x264 900 MB

DOWNLOAD EVERY SHOWS/SERIAL OF ‘ZEE5’, ‘HOTSTAR’, ‘VOOT’, ‘SONYLIV’, ONLY FROM THIS SITE AFTER 7 DECEMBER 2018

CLICK HERE FOR MORE INFORMATION  अधिक जानकारी के लिए यहां क्लिक करें।

 

 

Venom 2018 Web-DL 720p Dual Audio [Hindi Eng] AAC x264 900 MB
Venom 2018 Web-DL 720p Dual Audio [Hindi Eng] AAC x264 900 MB

Venom 2018 Web-DL 720p Dual Audio [Hindi Eng] AAC x264 900 MB,Venom 2018 movie download 720p,Venom 2018 hd movie free download,Venom 2018 full movie in hd download,Venom 2018 hd movie free download,download movie Venom 2018 in hd,Venom 2018 full movie download 1080p,Venom 2018 full movie download filmywap,Venom 2018 full movie download 720p free Hindi Audio,(Venom 2018 Web-DL 720p Dual Audio [Hindi Eng] AAC x264 900 MB),Venom 2018 full movie download 720p in hindi ,Venom full movie download in hindi mp4 Original Print,Venom 2018 Web-DL 720p Dual Audio [Hindi Eng] AAC x264 900 MB,

Venom 2018 full hd movie 720p dailymotion download,Venom 2018 full movie download 720p filmywap 2018 hd download,Venom 2018 movie download 720p,Venom 2018 movie hd download 2016,Venom 2018 full movie in hd download,download Venom 2018 movie hd,Venom hd movie free download,full movie Venom 2018 download,

Venom 2018 Web-DL 720p Dual Audio [Hindi Eng] AAC x264 900 MB
Venom 2018 Web-DL 720p Dual Audio [Hindi Eng] AAC x264 900 MB

IMDB Rating: 7.0/10 [Votes-124,743]
Directed: Ruben Fleischer
Released Date: 5 October 2018
Types: Action ,Horror ,Sci-Fi
Film Stars: Tom Hardy, Michelle Williams, Riz Ahmed
Movie Quality: 720p WEB-DL
File Size: 901MB.

 

Storyline==}} When Eddie Brock acquires the powers of a symbiote, he will have to release his alter-ego “Venom” to save his life. (Venom 2018 Web-DL 720p Dual Audio [Hindi Eng] AAC x264 900 MB)

Venom 2018 Web-DL 720p Dual Audio [Hindi Eng] AAC x264 900 MB

Venom 2018 Web-DL 720p Dual Audio [Hindi Eng] AAC x264 900 MB
Venom 2018 Web-DL 720p Dual Audio [Hindi Eng] AAC x264 900 MB
Venom 2018 Web-DL 720p Dual Audio [Hindi Eng] AAC x264 900 MB
Venom 2018 Web-DL 720p Dual Audio [Hindi Eng] AAC x264 900 MB

Venom 2018 Web-DL 720p Dual Audio [Hindi Eng] AAC x264 900 MB

-=Download Links=-

Venom 2018 Web-DL 720p Dual Audio [Hindi Eng] AAC x264 900 MB
Venom 2018 Web-DL 720p Dual Audio [Hindi Eng] AAC x264 900 MB

Download From Filerio
Download from Desiupload
Download From Vidoza
Download From TusFiles
Download From Uploadfiles

Watch Venom Movie Trailer In Hindi

Thanks for Downloading…………

Venom 2018 Web-DL 720p Dual Audio [Hindi Eng] AAC x264 900 MB
Venom 2018 Web-DL 720p Dual Audio [Hindi Eng] AAC x264 900 MB

Visit Our Other Popular Post To Related This

The Journey Of Karma 2018 HD Full Movie Free Download PDVDRip 700 MB
Incredibles 2 2018 Dual Audio [Hindi English] 480p HDRip 450Mb ESubs
Power Unlimited 2 2018 ORG Dual Audio UNCUT 480p HDRip [Hindi Telugu]
Power Unlimited 2 2018 UNCUT ORG Dual Audio 720p HDRip [Hindi Telugu]
Download Game of Thrones S02 Complete Dual Audio Hindi BluRay 720p
Download The Flash S01 Complete Dual Audio Hindi 720p BluRay
Download Indian Idol Season 10 Episode 32 21st October 2018 720p HDTV 800Mb
Download Indian Idol Season 10 Episode 31 20th October 2018 720p HDTV 800Mb
Download Comedy Circus 2018 Episode 11 20th October 2018 720p HDTV 400Mb
Download Comedy Circus 2018 Episode 12 21st October 2018 720p HDTV 400Mb
Downlolad Sanju (2018) Hindi HDTVRip 480p x264 400 MB ESub Free
Download Jalebi 2018 Hindi Full Movie PDVDRip 700MB Free Moviesjug
Download Mitron 2018 Hindi DVDScr 700 MB Free Moviesjug
Download Fryday 2018 Hindi Full Movie PDVDRip 700MB Free Moviesjug
Download Pataakha 2018 Hindi Full Movie PDVDRip 700MB Free Moviesjug
Download Helicopter Eela 2018 Hindi Full Movie PDVDRip 700MB Free
Download FryDay (2018) Hindi 720p VER 2 AAC HQ DVD SCR x264 1.5 GB
Downlolad Soorma (2018) Hindi HDRip 720p AAC 1.2 GB ESub Free
Download L7 (2018) Hindi Dubbed 720p HDRip x264 900MB
Download Game of Thrones S02 Complete Dual Audio Hindi BluRay 720p
Download The Flash S01 Complete Dual Audio Hindi 720p BluRay
Download WWE Smackdown Live 09 October 2018 HDTV 480p 300MB
Download WWE Monday Night Raw 08 October 2018 HDTV 800mb
Haseena (2018) Hindi AAC 720p HDRip x264 900 MB
Download Karwaan (2018) Hindi 720p HDRip 850Mb
Ant Man And The Wasp (2018) Dual Audio [Hindi Cleaned Eng] HDRip 720p x264 ESubs 1Gb
Download Dashing Diljala 2018 Hindi Dubbed 720p HDRip 850Mb
Download Mulk (2018) Hindi 720p HDRip x264 AAC 1.2Gb
Download Dhadak (2018) Hindi 720p HDRip x264 950Mb
Jurassic World Fallen Kingdom (2018) Hindi ORG Dual Audio 720p BluRay 1GB
Download Sui Dhaaga Made in India (2018) Hindi PDVDRip x264 AAC 700MB
Download Akira (2016) 720p UNCUT HDRip x264 [Dual Audio] [Hindi Telugu]
Zhongkui Snow Girl and the Dark Crystal (2015) Dual Audio 720p HDRip [Hindi Chinese] 1Gb
Download Saheb Biwi Aur Gangster 3 2018 Hindi 350MB HDRip 480p
Download Saheb Biwi Aur Gangster 3 2018 Hindi 720p HDRip 1Gb
Download Batti Gul Meter Chalu 2018 Hindi PreDvd Rip 700MB
Download Laila Majnu 2018 Hindi DVDScr 700MB x264 Full Movie
Download Mitron 2018 Hindi DVDScr 700 MB Free Moviesjug
Download WWE Hell In A Cell 2018 PPV HDTV 720p – Moviesjug
Download Manmarziyaan 2018 Hindi pDVDRip 700MB- Moviesjug
Download Genius (2018) Propper Audio Hindi 720p HDRip x264 1.4GB ESubs
Rampage (2018) Dual Audio ORG 720p BRRip Hindi English DD 5.1ch 1GB
Download Ant Man and the Wasp 2018 Dual Audio Hindi English 480p HDTC 300mb
Click Here For Bing.com Searchengine
Click Here For Google.co.in
Click Here For Youtube.com

Video And Audio Full Details (Properties)

General
Venom 2018 Proper WEB-DL Dual Audio [Hindi English] 720p ESubs x264 AAC 900Mb.mkv
Format : Matroska
Format version : Version 4 / Version 2
File size : 902 MiB
Duration : 1 h 47 min
Overall bit rate : 1 175 kb/s
Movie name : Downloaded From [Moviesjug.net]

Video
ID : 1
Format : AVC
Format/Info : Advanced Video Codec
Format profile : [email protected]
Format settings : CABAC / 5 Ref Frames
Format settings, CABAC : Yes
Format settings, RefFrames : 5 frames
Codec ID : V_MPEG4/ISO/AVC
Duration : 1 h 47 min
Bit rate : 1 047 kb/s
Width : 1 280 pixels
Height : 536 pixels
Display aspect ratio : 2.40:1
Frame rate mode : Constant
Frame rate : 23.976 (24000/1001) FPS
Color space : YUV
Chroma subsampling : 4:2:0
Bit depth : 8 bits
Scan type : Progressive
Bits/(Pixel*Frame) : 0.064
Stream size : 802 MiB (89%)
Title : Downloaded From [Moviesjug.net]
Writing library : x264 core 155
Language : English
Default : Yes
Forced : No
Color range : Limited
Color primaries : BT.709
Transfer characteristics : BT.709
Matrix coefficients : BT.709

Audio #1
ID : 2
Format : MPEG Audio
Format version : Version 2
Format profile : Layer 3
Format settings : Joint stereo / Intensity Stereo + MS Stereo
Codec ID : A_MPEG/L3
Codec ID/Hint : MP3
Duration : 1 h 47 min
Bit rate mode : Constant
Bit rate : 64.0 kb/s
Channel(s) : 2 channels
Sampling rate : 22.05 kHz
Frame rate : 38.281 FPS (576 SPF)
Compression mode : Lossy
Stream size : 48.9 MiB (5%)
Title : Downloaded From [Moviesjug.net]
Language : Hindi
Default : Yes
Forced : No

Audio #2
ID : 3
Format : AAC
Format/Info : Advanced Audio Codec
Format profile : HE-AAC / LC
Format settings : Explicit
Codec ID : A_AAC-2
Duration : 1 h 47 min
Bit rate : 64.0 kb/s
Channel(s) : 2 channels
Channel positions : Front: L R
Sampling rate : 48.0 kHz / 24.0 kHz
Frame rate : 23.438 FPS (1024 SPF)
Compression mode : Lossy
Delay relative to video : 31 ms
Stream size : 49.1 MiB (5%)
Title : Downloaded From [Moviesjug.net]
Language : English
Default : No
Forced : No

Text
ID : 4
Format : UTF-8
Codec ID : S_TEXT/UTF8
Codec ID/Info : UTF-8 Plain Text
Duration : 1 h 34 min
Bit rate : 63 b/s
Count of elements : 1361
Stream size : 44.4 KiB (0%)
Title : Downloaded From [Moviesjug.net]
Language : English
Default : Yes
Forced : No

Venom 2018 Web-DL 720p Dual Audio [Hindi Eng] AAC x264 900 MB

Venom 2018 Web-DL 720p Dual Audio [Hindi Eng] AAC x264 900 MB

Venom 2018 Web-DL 720p Dual Audio [Hindi Eng] AAC x264 900 MB
Summary
Article Name
Venom 2018 Web-DL 720p Dual Audio [Hindi Eng] AAC x264 900 MB
Description
Venom 2018 Web-DL 720p Dual Audio [Hindi Eng] AAC x264 900 MB,Venom 2018 movie download 720p,Venom 2018 hd movie free download,Venom 2018 full movie in hd download,Venom 2018 hd movie free download,download movie Venom 2018 in hd,Venom 2018 full movie download 1080p,Venom 2018 full movie download filmywap,Venom 2018 full movie download 720p free Hindi Audio,(Venom 2018 Web-DL 720p Dual Audio [Hindi Eng] AAC x264 900 MB),
Author
Publisher Name
Moviesjug.Net

Leave a Reply

Your email address will not be published. Required fields are marked *