Venom 2018 BluRay 1080p Dual Audio [Hindi (Cleaned) + Eng] ESubs x264 Aac 1.7GB

DOWNLOAD EVERY SHOWS/SERIAL OF ‘ZEE5’, ‘HOTSTAR’, ‘VOOT’, ‘SONYLIV’, ONLY FROM THIS SITE AFTER 7 DECEMBER 2018

CLICK HERE FOR MORE INFORMATION  अधिक जानकारी के लिए यहां क्लिक करें।

Venom 2018 BluRay 1080p Dual Audio [Hindi (Cleaned) + Eng] ESubs x264 Aac 1.7GB
Venom 2018 BluRay 1080p Dual Audio [Hindi (Cleaned) + Eng] ESubs x264 Aac 1.7GB

Venom 2018 BluRay 1080p Dual Audio [Hindi (Cleaned) + Eng] ESubs x264 Aac 1.7GB,Venom 2018 movie download 1080p,Venom 2018 hd movie free download,Venom 2018 full movie in hd download,Venom 2018 hd movie free download,download movie Venom 2018 in hd,Venom 2018 full movie download 1080p,Venom 2018 full movie download filmywap,Venom 2018 full movie download 1080p free Hindi Audio,(Venom 2018 BluRay 1080p Dual Audio [Hindi (Cleaned) + Eng] ESubs x264 Aac 1.7GB),Venom 2018 full movie download 1080p in hindi ,Venom full movie download in hindi mp4 Original Print,Venom Movie Download Bluray print 1080p,Venom Movie Download Bluray print 1080p,Venom Bluray Dual Audio Download 720p,Venom Bluray Dual Audio Download 1080p,Venom 2018 BluRay 1080p Dual Audio [Hindi (Cleaned) + Eng] ESubs x264 Aac 1.7GB,

Venom 2018 full hd movie 1080p dailymotion download,Venom 2018 full movie download 1080p filmywap 2018 hd download,Venom 2018 movie download 1080p,Venom 2018 movie hd download 1080p,Venom 2018 full movie in hd download,download Venom 2018 movie hd,Venom hd movie free download,full movie Venom 2018 download,

Venom 2018 BluRay 1080p Dual Audio [Hindi (Cleaned) + Eng] ESubs x264 Aac 1.7GB
Venom 2018 BluRay 1080p Dual Audio [Hindi (Cleaned) + Eng] ESubs x264 Aac 1.7GB

IMDB Rating: 6.9/10 [Votes-149,402]
Directed: Ruben Fleischer
Released Date: 5 October 2018
Types: Action ,Horror ,Sci-Fi
Film Stars: Tom Hardy, Michelle Williams, Riz Ahmed
Movie Quality: 1080p BluRay
File Size: 1.7GB.

 

Storyline==}} When Eddie Brock acquires the powers of a symbiote, he will have to release his alter-ego “Venom” to save his life. (Venom 2018 BluRay 1080p Dual Audio [Hindi (Cleaned) + Eng] ESubs x264 Aac 1.7GB)

Venom 2018 BluRay 1080p Dual Audio [Hindi (Cleaned) + Eng] ESubs x264 Aac 1.7GB
Venom 2018 BluRay 1080p Dual Audio [Hindi (Cleaned) + Eng] ESubs x264 Aac 1.7GB
Venom 2018 BluRay 1080p Dual Audio [Hindi (Cleaned) + Eng] ESubs x264 Aac 1.7GB

Venom 2018 BluRay 1080p Dual Audio [Hindi (Cleaned) + Eng] ESubs x264 Aac 1.7GB

-=Watch Online Links=-

Will be Uploaded Soon…..

Download From Vidoza
Download From TusFiles

-=Download Links=-

Venom 2018 BluRay 1080p Dual Audio [Hindi (Cleaned) + Eng] ESubs x264 Aac 1.7GB
Venom 2018 BluRay 1080p Dual Audio [Hindi (Cleaned) + Eng] ESubs x264 Aac 1.7GB

Click Here =- For “Direct Download Link” In 1 Click Download

Download From Filerio
Download from Desiupload
Download From Vidoza
Download From TusFiles
Download From Uploadfiles

Watch Venom Movie Trailer In Hindi

Thanks for Downloading…………

Venom 2018 BluRay 1080p Dual Audio [Hindi (Cleaned) + Eng] ESubs x264 Aac 1.7GB
Venom 2018 BluRay 1080p Dual Audio [Hindi (Cleaned) + Eng] ESubs x264 Aac 1.7GB

Visit Our Other Popular Post To Related This

The Journey Of Karma 2018 HD Full Movie Free Download PDVDRip 700 MB
Incredibles 2 2018 Dual Audio [Hindi English] 480p HDRip 450Mb ESubs
Power Unlimited 2 2018 ORG Dual Audio UNCUT 480p HDRip [Hindi Telugu]
Power Unlimited 2 2018 UNCUT ORG Dual Audio 720p HDRip [Hindi Telugu]
Download Game of Thrones S02 Complete Dual Audio Hindi BluRay 720p
Download The Flash S01 Complete Dual Audio Hindi 720p BluRay
Download Indian Idol Season 10 Episode 32 21st October 2018 720p HDTV 800Mb
Download Indian Idol Season 10 Episode 31 20th October 2018 720p HDTV 800Mb
Download Comedy Circus 2018 Episode 11 20th October 2018 720p HDTV 400Mb
Download Comedy Circus 2018 Episode 12 21st October 2018 720p HDTV 400Mb
Downlolad Sanju (2018) Hindi HDTVRip 480p x264 400 MB ESub Free
Download Jalebi 2018 Hindi Full Movie PDVDRip 700MB Free Moviesjug
Download Mitron 2018 Hindi DVDScr 700 MB Free Moviesjug
Download Fryday 2018 Hindi Full Movie PDVDRip 700MB Free Moviesjug
Download Pataakha 2018 Hindi Full Movie PDVDRip 700MB Free Moviesjug
Download Helicopter Eela 2018 Hindi Full Movie PDVDRip 700MB Free
Download FryDay (2018) Hindi 720p VER 2 AAC HQ DVD SCR x264 1.5 GB
Downlolad Soorma (2018) Hindi HDRip 720p AAC 1.2 GB ESub Free
Download L7 (2018) Hindi Dubbed 720p HDRip x264 900MB
Download Game of Thrones S02 Complete Dual Audio Hindi BluRay 720p
Download The Flash S01 Complete Dual Audio Hindi 720p BluRay
Download WWE Smackdown Live 09 October 2018 HDTV 480p 300MB
Download WWE Monday Night Raw 08 October 2018 HDTV 800mb
Haseena (2018) Hindi AAC 720p HDRip x264 900 MB
Download Karwaan (2018) Hindi 720p HDRip 850Mb
Ant Man And The Wasp (2018) Dual Audio [Hindi Cleaned Eng] HDRip 720p x264 ESubs 1Gb
Download Dashing Diljala 2018 Hindi Dubbed 720p HDRip 850Mb
Download Mulk (2018) Hindi 720p HDRip x264 AAC 1.2Gb
Download Dhadak (2018) Hindi 720p HDRip x264 950Mb
Jurassic World Fallen Kingdom (2018) Hindi ORG Dual Audio 720p BluRay 1GB
Download Sui Dhaaga Made in India (2018) Hindi PDVDRip x264 AAC 700MB
Download Akira (2016) 720p UNCUT HDRip x264 [Dual Audio] [Hindi Telugu]
Zhongkui Snow Girl and the Dark Crystal (2015) Dual Audio 720p HDRip [Hindi Chinese] 1Gb
Download Saheb Biwi Aur Gangster 3 2018 Hindi 350MB HDRip 480p
Download Saheb Biwi Aur Gangster 3 2018 Hindi 720p HDRip 1Gb
Download Batti Gul Meter Chalu 2018 Hindi PreDvd Rip 700MB
Download Laila Majnu 2018 Hindi DVDScr 700MB x264 Full Movie
Download Mitron 2018 Hindi DVDScr 700 MB Free Moviesjug
Download WWE Hell In A Cell 2018 PPV HDTV 720p – Moviesjug
Download Manmarziyaan 2018 Hindi pDVDRip 700MB- Moviesjug
Download Genius (2018) Propper Audio Hindi 720p HDRip x264 1.4GB ESubs
Rampage (2018) Dual Audio ORG 720p BRRip Hindi English DD 5.1ch 1GB
Download Ant Man and the Wasp 2018 Dual Audio Hindi English 480p HDTC 300mb
Click Here For Bing.com Searchengine
Click Here For Google.co.in
Click Here For Youtube.com

Video And Audio Full Details (Properties)

General
Venom 2018 BluRay 1080p Dual Audio [Hindi (Cleaned) + Eng] ESubs x264 Aac 1.7GB
Format : Matroska
Format version : Version 4 / Version 2
File size : 1.83 GiB
Duration : 1 h 52 min
Overall bit rate mode : Variable
Overall bit rate : 2 334 kb/s
Movie name : Venom 2018 BluRay 1080p Dual Audio [Hindi (Cleaned) + Eng] ESubs x264 Aac 1.7GB

Video
ID : 1
Format : AVC
Format/Info : Advanced Video Codec
Format profile : [email protected]
Format settings : CABAC / 4 Ref Frames
Format settings, CABAC : Yes
Format settings, RefFrames : 4 frames
Codec ID : V_MPEG4/ISO/AVC
Duration : 1 h 52 min
Bit rate : 2 150 kb/s
Width : 1 920 pixels
Height : 800 pixels
Display aspect ratio : 2.40:1
Frame rate mode : Constant
Frame rate : 23.976 (24000/1001) FPS
Color space : YUV
Chroma subsampling : 4:2:0
Bit depth : 8 bits
Scan type : Progressive
Bits/(Pixel*Frame) : 0.058
Stream size : 1.68 GiB (92%)
Writing library : x264 core 157
Venom 2018 BluRay 1080p Dual Audio [Hindi (Cleaned) + Eng] ESubs x264 Aac 1.7GB
Language : English
Default : Yes
Forced : No

Audio #1
ID : 2
Format : MPEG Audio
Format version : Version 1
Format profile : Layer 3
Format settings : Joint stereo / MS Stereo
Codec ID : A_MPEG/L3
Codec ID/Hint : MP3
Duration : 1 h 52 min
Bit rate mode : Variable
Bit rate : 96.0 kb/s
Channel(s) : 2 channels
Sampling rate : 48.0 kHz
Frame rate : 41.667 FPS (1152 SPF)
Compression mode : Lossy
Delay relative to video : -43 ms
Stream size : 80.9 MiB (4%)
Title : Venom 2018 BluRay 1080p Dual Audio [Hindi (Cleaned) + Eng] ESubs x264 Aac 1.7GB
Language : Hindi
Default : No
Forced : No

Audio #2
ID : 3
Format : AAC
Format/Info : Advanced Audio Codec
Format profile : LC
Codec ID : A_AAC-2
Duration : 1 h 52 min
Bit rate : 80.3 kb/s
Channel(s) : 2 channels
Channel positions : Front: L R
Sampling rate : 48.0 kHz
Frame rate : 46.875 FPS (1024 SPF)
Compression mode : Lossy
Delay relative to video : -22 ms
Stream size : 64.4 MiB (3%)
Title : Venom 2018 BluRay 1080p Dual Audio [Hindi (Cleaned) + Eng] ESubs x264 Aac 1.7GB
Language : English
Default : No
Forced : No

Text
ID : 4
Format : UTF-8
Codec ID : S_TEXT/UTF8
Codec ID/Info : UTF-8 Plain Text
Duration : 1 h 34 min
Bit rate : 63 b/s
Count of elements : 1399
Stream size : 44.0 KiB (0%)
Title : Venom 2018 BluRay 1080p Dual Audio [Hindi (Cleaned) + Eng] ESubs x264 Aac 1.7GB
Language : English
Default : No
Forced : No

Venom 2018 BluRay 1080p Dual Audio [Hindi (Cleaned) + Eng] ESubs x264 Aac 1.7GB

Venom 2018 BluRay 1080p Dual Audio [Hindi (Cleaned) + Eng] ESubs x264 Aac 1.7GB

Venom 2018 BluRay 1080p Dual Audio [Hindi (Cleaned) + Eng] ESubs x264 Aac 1.7GB
Summary
Article Name
Venom 2018 BluRay 1080p Dual Audio [Hindi (Cleaned) + Eng] ESubs x264 Aac 1.7GB
Description
Venom 2018 BluRay 1080p Dual Audio [Hindi (Cleaned) + Eng] ESubs x264 Aac 1.7GB,Venom 2018 movie download 1080p,Venom 2018 hd movie free download,Venom 2018 full movie in hd download,Venom 2018 hd movie free download,download movie Venom 2018 in hd,Venom 2018 full movie download 1080p,Venom 2018 full movie download filmywap,Venom 2018 full movie download 1080p free Hindi Audio,(Venom 2018 BluRay 1080p Dual Audio [Hindi (Cleaned) + Eng] ESubs x264 Aac 1.7GB),
Author
Publisher Name
Moviesjug.Net

Leave a Reply

Your email address will not be published. Required fields are marked *