Tik Tik Tik 2018 Dual Audio [Hindi Tamil] UNCUT 720p HDRip AAC x264 1GB

DOWNLOAD EVERY SHOWS/SERIAL OF ‘ZEE5’, ‘HOTSTAR’, ‘VOOT’, ‘SONYLIV’, ONLY FROM THIS SITE AFTER 7 DECEMBER 2018

CLICK HERE FOR MORE INFORMATION  अधिक जानकारी के लिए यहां क्लिक करें।

 

Tik Tik Tik 2018 Dual Audio [Hindi Tamil] UNCUT 720p HDRip AAC x264 1GB
Tik Tik Tik 2018 Dual Audio [Hindi Tamil] UNCUT 720p HDRip AAC x264 1GB

Tik Tik Tik 2018 Dual Audio [Hindi Tamil] UNCUT 720p HDRip AAC x264 1GB,Tik Tik Tik 2018 movie  hindi dubbed download 720p,Tik Tik Tik 2018 hd movie free download hindi,Tik Tik Tik 2018 full movie in hindi hd download,Tik Tik Tik 2018 hd movie free download,download movie Tik Tik Tik 2018 in hd,Tik Tik Tik 2018 full movie download 1080p,Tik Tik Tik 2018 full movie download filmywap,Tik Tik Tik 2018 full movie download 720p free,(Tik Tik Tik 2018 Dual Audio [Hindi Tamil] UNCUT 720p HDRip AAC x264 1GB)Tik Tik Tik 2018 full movie download 720p in hindi,Tik Tik Tik 2018 full movie download in hindi mp4,Tik Tik Tik 2018 full movie download utorrent free download,Tik Tik Tik 2018 Dual Audio [Hindi Tamil] UNCUT 720p HDRip AAC x264 1GB,Tik Tik Tik 2018 Movie Daonload In Dual Audio HIndi,Tik Tik Tik 2018 Movie Download In dual Audio Hindi Tamil,Download Tik Tik Tik 2018 Movie In tamil,Tik Tik Tik 2018 Movie Download In dual Audio Hindi Tamil Full Hd,Tik Tik Tik 2018 Movie Download In dual Audio Hindi Tamil 720p,Tik Tik Tik 2018 Movie Download In dual Audio Hindi Tamil 480p

Tik Tik Tik 2018 Dual Audio [Hindi Tamil] UNCUT 720p HDRip AAC x264 1GB
Tik Tik Tik 2018 Dual Audio [Hindi Tamil] UNCUT 720p HDRip AAC x264 1GB
Tik Tik Tik 2018 Dual Audio [Hindi Tamil] UNCUT 720p HDRip AAC x264 1GB

IMDB Ratings: 6.5/10
Directed: Shakti Soundar Rajan
Released Date: 25 Nov 2018 Hindi
Genres: Action ,Adventure ,Sci-Fi
Languages: Hindi
Film Nivetha Pethuraj, Jayam Ravi, V. Jayaprakash
Movie Quality: 720p UNCUT HDRip
File Size: 1GB

Storyline==}} To detonate the huge asteroid which is 7days away from earth with the help of nuclear missile set in space station, team of 6 members travel to space. The hurdles and consequences they faced in this operation will lead them to succeed in their mission is the rest of the story…. (Tik Tik Tik 2018 Dual Audio [Hindi Tamil] UNCUT 720p HDRip AAC x264 1GB)

Tik Tik Tik 2018 Dual Audio [Hindi Tamil] UNCUT 720p HDRip AAC x264 1GB
Tik Tik Tik 2018 Dual Audio [Hindi Tamil] UNCUT 720p HDRip AAC x264 1GB
Tik Tik Tik 2018 Dual Audio [Hindi Tamil] UNCUT 720p HDRip AAC x264 1GB
Tik Tik Tik 2018 Dual Audio [Hindi Tamil] UNCUT 720p HDRip AAC x264 1GB

Tik Tik Tik 2018 Dual Audio [Hindi Tamil] UNCUT 720p HDRip AAC x264 1GB

Download Links

Tik Tik Tik 2018 Dual Audio [Hindi Tamil] UNCUT 720p HDRip AAC x264 1GB
Tik Tik Tik 2018 Dual Audio [Hindi Tamil] UNCUT 720p HDRip AAC x264 1GB

Download from Filerio
Download from Vidoza
Download from TusFiles
Download from Desiupload

Thanks for Downloading…………

Tik Tik Tik 2018 Dual Audio [Hindi Tamil] UNCUT 720p HDRip AAC x264 1GB
Tik Tik Tik 2018 Dual Audio [Hindi Tamil] UNCUT 720p HDRip AAC x264 1GB

Visit Our Other Popular Post To Related This

Download Game of Thrones S02 Complete Dual Audio Hindi BluRay 720p
Download The Flash S01 Complete Dual Audio Hindi 720p BluRay
Download WWE Smackdown Live 09 October 2018 HDTV 480p 300MB
Download WWE Monday Night Raw 08 October 2018 HDTV 800mb
Haseena (2018) Hindi AAC 720p HDRip x264 900 MB
Download Karwaan (2018) Hindi 720p HDRip 850Mb
Ant Man And The Wasp (2018) Dual Audio [Hindi Cleaned Eng] HDRip 720p x264 ESubs 1Gb
Download Dashing Diljala 2018 Hindi Dubbed 720p HDRip 850Mb
Download Mulk (2018) Hindi 720p HDRip x264 AAC 1.2Gb
Download Dhadak (2018) Hindi 720p HDRip x264 950Mb
Jurassic World Fallen Kingdom (2018) Hindi ORG Dual Audio 720p BluRay 1GB
Download Sui Dhaaga Made in India (2018) Hindi PDVDRip x264 AAC 700MB
Power Unlimited 2 (Touch Chesi Chudu) 2018 Dual Audio 480p HDRip [Hindi Telugu]
18+ X X X Uncensored (2018) S01 All 5 Episodes Hindi 720p HDRip x264 800mb
Power Unlimited 2 (Touch Chesi Chudu) 2018 Dual Audio 720p HDRip [Hindi Telugu]
Download Akira (2016) 720p UNCUT HDRip x264 [Dual Audio] [Hindi Telugu]
Zhongkui Snow Girl and the Dark Crystal (2015) Dual Audio 720p HDRip [Hindi Chinese] 1Gb
Download Saheb Biwi Aur Gangster 3 2018 Hindi 350MB HDRip 480p
Download Saheb Biwi Aur Gangster 3 2018 Hindi 720p HDRip 1Gb
Download Batti Gul Meter Chalu 2018 Hindi PreDvd Rip 700MB
Download Laila Majnu 2018 Hindi DVDScr 700MB x264 Full Movie
Download Mitron 2018 Hindi DVDScr 700 MB Free Moviesjug
Download Manmarziyaan 2018 Hindi pDVDRip 700MB- Moviesjug
Download Genius (2018) Propper Audio Hindi 720p HDRip x264 1.4GB ESubs
Rampage (2018) Dual Audio ORG 720p BRRip Hindi English DD 5.1ch 1GB
Click Here For Bing.com Searchengine
Click Here For Google.co.in
Click Here For Youtube.com

Video And Audio Full Details (Properties)

General
Tik Tik Tik 2018 [Moviesjug.net] Dual Audio [Hindi Tamil] UNCUT 720p HDRip AAC x264 1Gb.mkv
Format : Matroska
Format version : Version 4 / Version 2
File size : 1.05 GiB
Duration : 2 h 9 min
Overall bit rate : 1 158 kb/s
Movie name : Downloaded From [Moviesjug.net]

Video
ID : 1
Format : AVC
Format/Info : Advanced Video Codec
Format profile : [email protected]
Format settings : CABAC / 4 Ref Frames
Format settings, CABAC : Yes
Format settings, RefFrames : 4 frames
Codec ID : V_MPEG4/ISO/AVC
Duration : 2 h 9 min
Bit rate : 900 kb/s
Width : 1 280 pixels
Height : 544 pixels
Display aspect ratio : 2.35:1
Frame rate mode : Constant
Frame rate : 23.976 (24000/1001) FPS
Color space : YUV
Chroma subsampling : 4:2:0
Bit depth : 8 bits
Scan type : Progressive
Bits/(Pixel*Frame) : 0.054
Stream size : 832 MiB (78%)
Title : Downloaded From [Moviesjug.net]
Writing library : x264 core 142
Language : Tamil
Default : Yes
Forced : No
Color range : Limited
Color primaries : BT.709
Transfer characteristics : BT.709
Matrix coefficients : BT.709

Audio #1
ID : 2
Format : AAC
Format/Info : Advanced Audio Codec
Format profile : LC
Codec ID : A_AAC-2
Duration : 2 h 9 min
Bit rate : 128 kb/s
Channel(s) : 2 channels
Channel positions : Front: L R
Sampling rate : 22.05 kHz
Frame rate : 21.533 FPS (1024 SPF)
Compression mode : Lossy
Delay relative to video : -46 ms
Stream size : 118 MiB (11%)
Title : Downloaded From [Moviesjug.net]
Language : Hindi
Default : Yes
Forced : No

Audio #2
ID : 3
Format : AAC
Format/Info : Advanced Audio Codec
Format profile : LC
Codec ID : A_AAC-2
Duration : 2 h 9 min
Bit rate : 128 kb/s
Channel(s) : 2 channels
Channel positions : Front: L R
Sampling rate : 22.05 kHz
Frame rate : 21.533 FPS (1024 SPF)
Compression mode : Lossy
Delay relative to video : -46 ms
Stream size : 119 MiB (11%)
Title : Downloaded From [Moviesjug.net]
Language : Tamil
Default : No
Forced : No

Tik Tik Tik 2018 Dual Audio [Hindi Tamil] UNCUT 720p HDRip AAC x264 1GB

Tik Tik Tik 2018 Dual Audio [Hindi Tamil] UNCUT 720p HDRip AAC x264 1GB

Tik Tik Tik 2018 Dual Audio [Hindi Tamil] UNCUT 720p HDRip AAC x264 1GB
Summary
Article Name
Tik Tik Tik 2018 Dual Audio [Hindi Tamil] UNCUT 720p HDRip AAC x264 1GB
Description
Tik Tik Tik 2018 Dual Audio [Hindi Tamil] UNCUT 720p HDRip AAC x264 1GB,Tik Tik Tik 2018 movie hindi dubbed download 720p,Tik Tik Tik 2018 hd movie free download hindi,Tik Tik Tik 2018 full movie in hindi hd download,Tik Tik Tik 2018 hd movie free download,download movie Tik Tik Tik 2018 in hd,Tik Tik Tik 2018 full movie download 1080p,Tik Tik Tik 2018 full movie download filmywap,Tik Tik Tik 2018 full movie download 720p free,(Tik Tik Tik 2018 Dual Audio [Hindi Tamil] UNCUT 720p HDRip AAC x264 1GB),
Author
Publisher Name
Moviesjug.net

Leave a Reply

Your email address will not be published. Required fields are marked *