The Snow Queen 2 2014 720 Bluray Dual Audio Hindi English 1 GB

DOWNLOAD EVERY SHOWS/SERIAL OF ‘ZEE5’, ‘HOTSTAR’, ‘VOOT’, ‘SONYLIV’, ONLY FROM THIS SITE AFTER 7 DECEMBER 2018

CLICK HERE FOR MORE INFORMATION

The Snow Queen 2 2014 720 Bluray Dual Audio Hindi English 1 GB
The Snow Queen 2 2014 720 Bluray Dual Audio Hindi English 1 GB

The Snow Queen 2 2014 720 Bluray Dual Audio Hindi English 1 GB,The Snow Queen 2  movie download 720p,The Snow Queen 2 2014 hd movie free download,The Snow Queen 2 2014 full movie in hd download,The Snow Queen 2 2014 hd movie free download,download movie The Snow Queen 2 2014 in hd,The Snow Queen 2 2014 full movie download 1080p,The Snow Queen 2 2014 full movie download filmywap,The Snow Queen 2 2014 full movie download 720p free,(The Snow Queen 2 2014 720 Bluray Dual Audio Hindi English 1 GB)The Snow Queen 2 2014 full movie download 720p in hindi,The Snow Queen 2 2014 full movie download in hindi mp4,The Snow Queen 2 2014 full movie download utorrent free download,The Snow Queen 2 2014 720 Bluray Dual Audio Hindi English 1 GB

The Snow Queen 2 2014 720 Bluray Dual Audio Hindi English 1 GB
The Snow Queen 2 2014 720 Bluray Dual Audio Hindi English 1 GB

IMDB Ratings: 6.3/10 [Votes = 1,948]
Genres: Animation, Adventure, Comedy
Release Date : 1 January 2015 (Russia)
Language: ORG Audios [Hindi + English]
Quality: 720p BRRip
Size: 1 GB
Director:  Aleksey Tsitsilin
Writers:  Roman Nepomnyashchiy, Vladimir Nikolaev
Stars: Ivan Okhlobystin, Anna Shurochkina, Garik Kharlamov

Storyline==}}  Snow queen casts a curse on her mirror making people see the worst in themselves.The Snow Queen 2 2014 720 Bluray Dual Audio Hindi English 1 GB

The Snow Queen 2 2014 720 Bluray Dual Audio Hindi English 1 GB
The Snow Queen 2 2014 720 Bluray Dual Audio Hindi English 1 GB

The Snow Queen 2 2014 720 Bluray Dual Audio Hindi English 1 GB

-=Watch Online Links=-

The Snow Queen 2 2014 720 Bluray Dual Audio Hindi English 1 GB

Watch Online From Vidoza

-=Download Links=-

The Snow Queen 2 2014 720 Bluray Dual Audio Hindi English 1 GB

Download from Filerio
Download From Desiupload
Download from Vidoza

Thanks for Downloading…………

The Snow Queen 2 2014 720 Bluray Dual Audio Hindi English 1 GB
The Snow Queen 2 2014 720 Bluray Dual Audio Hindi English 1 GB

Visit Our Other Popular Post To Related This

Robot 2.0 2018 VERSION 2 NEW LATEST BEST HD PRINT 480p 400 MB
Robot 2.0 2018 VERSION 2 NEW LATEST BEST HD PRINT 700 MB
Haseena (2018) Hindi AAC 720p HDRip x264 900 MB
Download Karwaan (2018) Hindi 720p HDRip 850Mb
Ant Man And The Wasp (2018) Dual Audio [Hindi Cleaned Eng] HDRip 720p x264 ESubs 1Gb
Download Dashing Diljala 2018 Hindi Dubbed 720p HDRip 850Mb
Download Mulk (2018) Hindi 720p HDRip x264 AAC 1.2Gb
Download Dhadak (2018) Hindi 720p HDRip x264 950Mb
Jurassic World Fallen Kingdom (2018) Hindi ORG Dual Audio 720p BluRay 1GB
Download Sui Dhaaga Made in India (2018) Hindi PDVDRip x264 AAC 700MB
Power Unlimited 2 (Touch Chesi Chudu) 2018 Dual Audio 480p HDRip [Hindi Telugu]
18+ X X X Uncensored (2018) S01 All 5 Episodes Hindi 720p HDRip x264 800mb
Power Unlimited 2 (Touch Chesi Chudu) 2018 Dual Audio 720p HDRip [Hindi Telugu]
Download Akira (2016) 720p UNCUT HDRip x264 [Dual Audio] [Hindi Telugu]
Zhongkui Snow Girl and the Dark Crystal (2015) Dual Audio 720p HDRip [Hindi Chinese] 1Gb
Download Saheb Biwi Aur Gangster 3 2018 Hindi 350MB HDRip 480p
Download Saheb Biwi Aur Gangster 3 2018 Hindi 720p HDRip 1Gb
Download Batti Gul Meter Chalu 2018 Hindi PreDvd Rip 700MB
Download Laila Majnu 2018 Hindi DVDScr 700MB x264 Full Movie
Download Mitron 2018 Hindi DVDScr 700 MB Free Moviesjug
Download Manmarziyaan 2018 Hindi pDVDRip 700MB- Moviesjug
Download Genius (2018) Propper Audio Hindi 720p HDRip x264 1.4GB ESubs
Rampage (2018) Dual Audio ORG 720p BRRip Hindi English DD 5.1ch 1GB
Click Here For Bing.com Searchengine
Click Here For Google.co.in
Click Here For Youtube.com

Video And Audio Full Details (Properties)

General
The Snow Queen 2 2014 720 Bluray Dual Audio Hindi English 1 GB
Format : Matroska
Format version : Version 4 / Version 2
File size : 1.08 GiB
Duration : 1 h 18 min
Overall bit rate : 1 957 kb/s
The Snow Queen 2 2014 720 Bluray Dual Audio Hindi English 1 GB

Video #1
ID : 1
Format : AVC
Format/Info : Advanced Video Codec
Format profile : [email protected]
Format settings : CABAC / 4 Ref Frames
Format settings, CABAC : Yes
Format settings, RefFrames : 4 frames
Codec ID : V_MPEG4/ISO/AVC
Duration : 1 h 18 min
Bit rate : 1 500 kb/s
Width : 1 280 pixels
Height : 534 pixels
Display aspect ratio : 2.40:1
Original display aspect ratio : 2.40:1
Frame rate mode : Constant
Frame rate : 23.976 (23976/1000) FPS
Color space : YUV
Chroma subsampling : 4:2:0
Bit depth : 8 bits
Scan type : Progressive
Bits/(Pixel*Frame) : 0.092
Stream size : 845 MiB (77%)
The Snow Queen 2 2014 720 Bluray Dual Audio Hindi English 1 GB aq=3:1.00
Language : English
Default : Yes
Forced : No

Video #2
ID : 2
Format : AVC
Format/Info : Advanced Video Codec
Format profile : [email protected]
Format settings : CABAC / 4 Ref Frames
Format settings, CABAC : Yes
Format settings, RefFrames : 4 frames
Codec ID : V_MPEG4/ISO/AVC
Duration : 1 h 18 min
Bit rate : 330 kb/s
Width : 720 pixels
Height : 300 pixels
Display aspect ratio : 2.40:1
Frame rate mode : Constant
Frame rate : 23.976 (23976/1000) FPS
Color space : YUV
Chroma subsampling : 4:2:0
Bit depth : 8 bits
Scan type : Progressive
Bits/(Pixel*Frame) : 0.064
Stream size : 183 MiB (17%)
The Snow Queen 2 2014 720 Bluray Dual Audio Hindi English 1 GB
Default : No
Forced : No
Color range : Limited
Color primaries : BT.709
Transfer characteristics : BT.709
Matrix coefficients : BT.709

Audio #1
ID : 3
Format : AAC
Format/Info : Advanced Audio Codec
Format profile : LC
Codec ID : A_AAC-2
Duration : 1 h 18 min
Bit rate : 64.1 kb/s
Channel(s) : 2 channels
Channel positions : Front: L R
Sampling rate : 48.0 kHz
Frame rate : 46.875 FPS (1024 SPF)
Compression mode : Lossy
Delay relative to video : 62 ms
Stream size : 36.1 MiB (3%)
Title : The Snow Queen 2 2014 720 Bluray Dual Audio Hindi English 1 GB
Language : Hindi
Default : Yes
Forced : No

Audio #2
ID : 4
Format : AAC
Format/Info : Advanced Audio Codec
Format profile : LC
Codec ID : A_AAC-2
Duration : 1 h 18 min
Bit rate : 64.2 kb/s
Channel(s) : 2 channels
Channel positions : Front: L R
Sampling rate : 48.0 kHz
Frame rate : 46.875 FPS (1024 SPF)
Compression mode : Lossy
Delay relative to video : 62 ms
Stream size : 36.2 MiB (3%)
Title : The Snow Queen 2 2014 720 Bluray Dual Audio Hindi English 1 GB
Language : English
Default : No
Forced : No

 

The Snow Queen 2 2014 720 Bluray Dual Audio Hindi English 1 GB

The Snow Queen 2 2014 720 Bluray Dual Audio Hindi English 1 GB

The Snow Queen 2 2014 720 Bluray Dual Audio Hindi English 1 GB
Summary
Article Name
The Snow Queen 2 2014 720 Bluray Dual Audio Hindi English 1 GB
Description
The Snow Queen 2 2014 720 Bluray Dual Audio Hindi English 1 GB,The Snow Queen 2 movie download 720p,The Snow Queen 2 2014 hd movie free download,The Snow Queen 2 2014 full movie in hd download,The Snow Queen 2 2014 hd movie free download,download movie The Snow Queen 2 2014 in hd,The Snow Queen 2 2014 full movie download 1080p,The Snow Queen 2 2014 full movie download filmywap,The Snow Queen 2 2014 full movie download 720p free
Author
Publisher Name
Moviesjug.net

Leave a Reply

Your email address will not be published. Required fields are marked *