The Kapil Sharma Show S02 Ep15 16 Feb 2019 720P/480P WebRip 500MB/350MB

DOWNLOAD EVERY SHOWS/SERIAL OF ‘ZEE5’, ‘HOTSTAR’, ‘VOOT’, ‘SONYLIV’, ONLY FROM THIS SITE AFTER 7 DECEMBER 2018

CLICK HERE FOR MORE INFORMATION  अधिक जानकारी के लिए यहां क्लिक करें।

The Kapil Sharma Show S02 Ep15 16 Feb 2019 720P/480P

The Kapil Sharma Show S02 Ep15 16 Feb 2019 720P/480P,Total dhamaal team cast in kapil sharma show episode 15 download hd,(The Kapil Sharma Show S02 Ep15 16 Feb 2019 720P/480P)kapil dharma show with total dhamaal movie stars download in full hd,the kapil sharma show 2 february 16 full episode hd download,ajay devgan ritesh dheshmukh anil kapoor madhuri dixit kapil shrma episode download total dhamaal,(The Kapil Sharma Show S02 Ep15 16 Feb 2019 720P/480P)

-= “MEDIA INFO” =-

Event: The Kapil Sharma Show Seasson 2
Genres: Reality Show
Language: Hindi
Quality: 720p/480p HDTV
Size: 500 MB / 350 MB
Host: Kapil Sharma
Guest: Total Dhamaal Movie Cast(Ajay,anil,ritesh,madhuri)

Storyline==}} The Kapil Sharma Show is coming back to the small screens today after a long hiatus. The show was temporarily put on hold after Kapil took a few months off to get his health in order but Sony TV had always assured its viewers that their favourite comedian will make a comeback..(The Kapil Sharma Show S02 Ep15 16 Feb 2019 720P/480P)

-= “SCREENSHOTS” =-

 

The Kapil Sharma Show S02 Ep15 16 Feb 2019 720P/480P






The Kapil Sharma Show S02 Ep15 16 Feb 2019 720P/480P

-= “WATCH ONLINE AND DOWNLOAD LINKS” =-

The Kapil Sharma Show S02 Ep15 16 Feb 2019 720P/480P

-= “Watch Online Links” =-

(Use “Google Chrome” Browser For Better Online Watch Or Stream)

Watch From Flix555

-= “720P Download Links” =-

Download From Clicknupload
Download From Desiupload
Download From Uploadfiles
Download From Flix555

-= “480P Download Links” =-

Download From Clicknupload
Download From Desiupload
Download From Uploadfiles
Download From Flix555

Thanks for Downloading…………

The Kapil Sharma Show S02 Ep15 16 Feb 2019 720P/480P

-= “Visit Our Other Popular Post To Related This” =-

Downlolad Sanju (2018) Hindi HDTVRip 480p x264 400 MB ESub Free
Download Jalebi 2018 Hindi Full Movie PDVDRip 700MB Free Moviesjug
Download Mitron 2018 Hindi DVDScr 700 MB Free Moviesjug
Download Mulk (2018) Hindi 720p HDRip x264 AAC 1.2Gb
Download Dhadak (2018) Hindi 720p HDRip x264 950Mb
Jurassic World Fallen Kingdom (2018) Hindi ORG Dual Audio 720p BluRay 1GB
Download Sui Dhaaga Made in India (2018) Hindi PDVDRip x264 AAC 700MB
Click Here For Bing.com Searchengine
Click Here For Google.co.in
Click Here For Youtube.com

-= “Video And Audio Full Details (Properties)” =-

General
The Kapil Sharma Show S02 Ep15 16 Feb 2019 720P/480P
Format : Matroska
Format version : Version 4 / Version 2
File size : 518 MiB
Duration : 1 h 13 min
Overall bit rate mode : Variable
Overall bit rate : 980 kb/s
Movie name : The Kapil Sharma Show S02 Ep15 16 Feb 2019 720P/480P

Video
ID : 1
Format : AVC
Format/Info : Advanced Video Codec
Format profile : [email protected]
Format settings : 3 Ref Frames
Format settings, CABAC : No
Format settings, RefFrames : 3 frames
Codec ID : V_MPEG4/ISO/AVC
Duration : 1 h 13 min
Bit rate mode : Variable
Bit rate : 916 kb/s
Maximum bit rate : 900 kb/s
Width : 960 pixels
Height : 540 pixels
Display aspect ratio : 1.900
Original display aspect ratio : 16:9
Frame rate mode : Constant
Frame rate : 25.000 FPS
Color space : YUV
Chroma subsampling : 4:2:0
Bit depth : 8 bits
Scan type : Progressive
Bits/(Pixel*Frame) : 0.071
Stream size : 484 MiB (94%)
Title : The Kapil Sharma Show S02 Ep15 16 Feb 2019 720P/480P
Language : Hindi
Default : Yes
Forced : No
Color range : Limited
Color primaries : BT.709
Transfer characteristics : BT.709
Matrix coefficients : BT.709

Audio
ID : 2
Format : AAC
Format/Info : Advanced Audio Codec
Format profile : LC
Codec ID : A_AAC-2
Duration : 1 h 13 min
Bit rate : 61.4 kb/s
Channel(s) : 2 channels
Channel positions : Front: L R
Sampling rate : 48.0 kHz
Frame rate : 46.875 FPS (1024 SPF)
Compression mode : Lossy
Delay relative to video : -33 ms
Stream size : 32.4 MiB (6%)
Title : The Kapil Sharma Show S02 Ep15 16 Feb 2019 720P/480P
Language : Hindi
Default : Yes
Forced : No

The Kapil Sharma Show S02 Ep15 16 Feb 2019 720P/480P

The Kapil Sharma Show S02 Ep15 16 Feb 2019 720P/480P

The Kapil Sharma Show S02 Ep15 16 Feb 2019 720P/480P
Summary
Article Name
The Kapil Sharma Show S02 Ep15 16 Feb 2019 720P/480P
Description
The Kapil Sharma Show S02 Ep15 16 Feb 2019 720P/480P,Total dhamaal team cast in kapil sharma show episode 15 download hd,kapil dharma show with total dhamaal movie stars download in full hd,the kapil sharma show 2 february 16 full episode hd download,ajay devgan ritesh dheshmukh anil kapoor madhuri dixit kapil shrma episode download total dhamaal
Author
Publisher Name
Moviesjug.net

Leave a Reply

Your email address will not be published. Required fields are marked *