The Final Call 2019 Hindi S01 Complete 1080p/720p/480p Download/Watch Free

DOWNLOAD EVERY SHOWS/SERIAL OF ‘ZEE5’, ‘HOTSTAR’, ‘VOOT’, ‘SONYLIV’, ONLY FROM THIS SITE AFTER 7 DECEMBER 2018

CLICK HERE FOR MORE INFORMATION  अधिक जानकारी के लिए यहां क्लिक करें।


The Final Call 2019 Hindi S01 Complete 1080p/720p/480p Free,the final call zee5 original new webseries download watch free,The Final Call all episodes download,the final call arjun ramplal latest webseries download,the final call 2019 hindi latest webseries all episodes download and watch free,(The Final Call 2019 Hindi S01 Complete 1080p/720p/480p Free),zee5 new webseries the final call full hd download and watch free,the final call zee5 original movie download in hd for free,the final call hd webseries all episodes download,the final call latest hd episodes download openload, the final call webseries torrent download download,zee5 the final call all episodes download free,(The Final Call 2019 Hindi S01 Complete 1080p/720p/480p Free)

-= “MEDIA INFO” =-

The Final Call 2019 Hindi S01 Complete 1080p/720p/480p Free
WebSeries Name : The Final Call 2019 Hindi S01 Complete
Genres: Drama , Mission , Suspence
Language: Hindi
Quality: 1080p/720p/480p WebRip
Size: 700 MB/600 MB/150MB
Stars : Arjun Rampal, Neeraj Kabi, Anupriya Goenka 

Storyline==}}  A story that will change the way you see your own life – FOREVER! Get ready for a spine chilling thriller with Arjun Rampal, premiering 22nd February only on ZEE5. (The Final Call 2019 Hindi S01 Complete 1080p/720p/480p Free)

-= “SCREENSHOTS” =-









The Final Call 2019 Hindi S01 Complete 1080p/720p/480p Free

-= “WATCH ONLINE AND DOWNLOAD LINKS” =-

The Final Call 2019 Hindi S01 Complete 1080p/720p/480p Free

-= “Watch Online Links” =-

(Use “Google Chrome” Browser For Better Online Watch Or Stream)

-= “720p Watch Online Links” =-

“EPISODE 01 Watch online 720p”

Watch From Rapidvideo 720p
Watch From Vup 720p
Watch From Flix555 720p
Watch From Filescdn  720p
Watch From Nxload 720p

“EPISODE 02 Watch online 720p”

Watch From Vup 720p
Watch From Rapidvideo 720p

Watch From Flix555 720p
Watch From Filescdn  720p
Watch From Nxload 720p

“EPISODE 03 Watch online 720p”

Watch From Vup 720p
Watch From Rapidvideo 720p

Watch From Flix555 720p
Watch From Filescdn  720p
Watch From Nxload 720p

“EPISODE 04 Watch online 720p”

Watch From Vup 720p
Watch From Rapidvideo 720p

Watch From Flix555 720p
Watch From Filescdn  720p
Watch From Nxload 720p

-= “Download Links” =-

-= “1080P Download Links” =-

“EPISODE 01 Download 1080p”

Download From Uploadfiles 1080p
Download From Clicknupload 1080p
Download From Desiupload 1080p
Download From Megaup 1080p
Download From DDL 1080p

“EPISODE 02 Download 1080p”

Download From Uploadfiles 1080p
Download From Clicknupload 1080p
Download From Desiupload 1080p
Download From Megaup 1080p
Download From DDL 1080p

“EPISODE 03 Download 1080p”

Download From Uploadfiles 1080p
Download From Clicknupload 1080p
Download From Desiupload 1080p
Download From Megaup 1080p
Download From DDL 1080p

-= “720P Download Links” =-

“EPISODE 01 Download 720p”

Download From Uploadfiles
Download From Clicknupload 720p
Download From Desiupload
Download From Megaup 720p
Download From DDL 720p

“EPISODE 02 Download 720p”

Download From DDL 720p
Download From Uploadfiles
Download From Clicknupload 720p
Download From Desiupload
Download From Megaup 720p

“EPISODE 03 Download 720p”

Download From DDL 720p
Download From Uploadfiles
Download From Clicknupload 720p
Download From Desiupload
Download From Megaup 720p

“EPISODE 04 Download 720p”

Download From Uploadfiles
Download From Clicknupload 720p
Download From DDL 720p
Download From Desiupload
Download From Megaup 720p

-= “480P Download Links” =-

“EPISODE 01 Download 480p”

Download From Clicknupload
Download From Uploadfiles
Download From Flix555 480p
Download From Filescdn  480p

“EPISODE 02 Download 480p”

Download From Clicknupload
Download From Uploadfiles
Download From Flix555 480p
Download From Filescdn  480p

“EPISODE 03 Download 480p”

Download From Clicknupload
Download From Uploadfiles
Download From Filescdn
Download From Flix555

“EPISODE 04 Download 480p”

Download From Clicknupload
Download From Uploadfiles
Download From Filescdn
Download From Flix555

Thanks for Downloading…………

The Final Call 2019 Hindi S01 Complete 1080p/720p/480p Free

-= “Visit Our Other Popular Post To Related This” =-

Downlolad Sanju (2018) Hindi HDTVRip 480p x264 400 MB ESub Free
Download Jalebi 2018 Hindi Full Movie PDVDRip 700MB Free Moviesjug
Download Manmarziyaan 2018 Hindi pDVDRip 700MB- Moviesjug
Download Genius (2018) Propper Audio Hindi 720p HDRip x264 1.4GB ESubs
Rampage (2018) Dual Audio ORG 720p BRRip Hindi English DD 5.1ch 1GB
Click Here For Bing.com Searchengine
Click Here For Google.co.in
Click Here For Youtube.com

-= “Video And Audio Full Details (Properties)” =- EP 01 720p

General
The Final Call 2019 Hindi S01 Complete 1080p/720p/480p Free
Format : Matroska
Format version : Version 4 / Version 2
File size : 571 MiB
Duration : 42 min 30 s
Overall bit rate : 1 879 kb/s
Movie name : The Final Call 2019 Hindi S01 Complete 1080p/720p/480p Free

Video
ID : 1
Format : AVC
Format/Info : Advanced Video Codec
Format profile : [email protected]
Format settings : CABAC / 4 Ref Frames
Format settings, CABAC : Yes
Format settings, RefFrames : 4 frames
Codec ID : V_MPEG4/ISO/AVC
Duration : 42 min 30 s
Bit rate : 1 800 kb/s
Width : 1 280 pixels
Height : 720 pixels
Display aspect ratio : 16:9
Frame rate mode : Constant
Frame rate : 25.000 FPS
Color space : YUV
Chroma subsampling : 4:2:0
Bit depth : 8 bits
Scan type : Progressive
Bits/(Pixel*Frame) : 0.078
Stream size : 541 MiB (95%)
Title : The Final Call 2019 Hindi S01 Complete 1080p/720p/480p Free
Language : Hindi
Default : Yes
Forced : No

Audio
ID : 2
Format : AAC
Format/Info : Advanced Audio Codec
Format profile : LC
Codec ID : A_AAC-2
Duration : 42 min 30 s
Bit rate : 96.0 kb/s
Channel(s) : 2 channels
Channel positions : Front: L R
Sampling rate : 48.0 kHz
Frame rate : 46.875 FPS (1024 SPF)
Compression mode : Lossy
Stream size : 29.3 MiB (5%)
Title : The Final Call 2019 Hindi S01 Complete 1080p/720p/480p Free
Language : Hindi
Default : Yes
Forced : No

The Final Call 2019 Hindi S01 Complete 1080p/720p/480p Free

The Final Call 2019 Hindi S01 Complete 1080p/720p/480p Free

The Final Call 2019 Hindi S01 Complete 1080p/720p/480p Free
Summary
Article Name
The Final Call 2019 Hindi S01 Complete 1080p/720p/480p Free
Description
zee5 new webseries the final call full hd download and watch free,the final call zee5 original movie download in hd for free,the final call hd webseries all episodes download,the final call latest hd episodes download openload, the final call webseries torrent download download,zee5 the final call all episodes download free
Author
Publisher Name
Moviesjug.net

Leave a Reply

Your email address will not be published. Required fields are marked *