Skyscraper 2018 Dual Audio ORG Hindi 720p BluRay [Hindi English] 900 MB ESubs

Skyscraper 2018 Dual Audio ORG Hindi 720p BluRay 900 MB ESubs
Skyscraper 2018 Dual Audio ORG Hindi 720p BluRay 900 MB ESubs

Skyscraper 2018 Dual Audio ORG Hindi 720p BluRay 900 MB ESubs,the ock latest movie skyscraper download hindi dubbed clear audio hd,skyscraper 2018 full movie hindi dubbed hd free download,Skyscraper 2018 hindi movie download 720p,Skyscraper 2018 hindi hd movie free download,Skyscraper 2018 hindi full movie in hd download,Skyscraper 2018 hindi hd movie free download,download movie Skyscraper 2018 hindi,Skyscraper 2018 hindi full movie download 1080p,Skyscraper 2018 hindi full movie download filmywap,Skyscraper 2018 hindi full movie download 720p free,(Skyscraper 2018 Dual Audio ORG Hindi 720p BluRay 900 MB ESubs)Skyscraper 2018 hindi full movie download 720p in hindi,Skyscraper 2018 hindi full movie download in hindi mp4,Skyscraper 2018 hindi full movie download utorrent free download,Skyscraper 2018 hindi HD Full Movie Free Download PDVDRip 700 MB

Skyscraper 2018 hindi full movie dailymotion download,Skyscraper 2018 hindi full movie download 720p filmywap hd download,Skyscraper 2018 hindi movie download 720p,Skyscraper 2018 hindi 2018 movie hd download ,Skyscraper 2018 hindi full movie in hd download,download Skyscraper 2018 hindi movie hd,Skyscraper 2018 hindi hd movie free download,full movie Skyscraper 2018 hindi download,Skyscraper 2018 hindi full movie full hd,download movie Skyscraper 2018 hindi in hd,Skyscraper 2018 hindi full movie hindi download,Skyscraper 2018 hindi full movie 720p download,Skyscraper 2018 hindi movie download hindi,Skyscraper 2018 hindi 2016 full movie download,Skyscraper 2018 hindi free download,Skyscraper 2018 hindi movie free download hd,Skyscraper 2018 hindi hindi full movie download,Skyscraper 2018 hindi full hd movie 2016,Skyscraper 2018 hindi film hd download,Skyscraper 2018 hindi full hd,Skyscraper 2018 hindi movie hindi download,

 

Skyscraper 2018 Dual Audio ORG Hindi 720p BluRay 900 MB ESubs
Skyscraper 2018 Dual Audio ORG Hindi 720p BluRay 900 MB ESubs

IMDB Ratings: 5.9/50,963
Genres: Action, Crime, Drama
Language: Hindi + English
Quality: 720pp BRRip ORG.
Size: 900 MB
Director: Rawson Marshall Thurber
Writer: Rawson Marshall Thurber
Stars: Dwayne Johnson, Neve Campbell, Pablo Schreiber

 

Storyline==}}FBI Hostage Rescue Team leader and U.S. war veteran Will Sawyer now assesses security for skyscrapers. On assignment in Hong Kong he finds the tallest, safest building in the world suddenly ablaze and he’s been framed for it. A wanted man on the run, Will must find those responsible, clear his name and somehow rescue his family who are trapped inside the building – above the fire line

Skyscraper 2018 Dual Audio ORG Hindi 720p BluRay 900 MB ESubs
Skyscraper 2018 Dual Audio ORG Hindi 720p BluRay 900 MB ESubs
Skyscraper 2018 Dual Audio ORG Hindi 720p BluRay 900 MB ESubs
Skyscraper 2018 Dual Audio ORG Hindi 720p BluRay 900 MB ESubs

Skyscraper 2018 Dual Audio ORG Hindi 720p BluRay 900 MB ESubs

Download Links

Download From Clicknupload
Download From Desiupload

Visit Our Other Popular Post To Related This

Mohalla Assi 2018 Hindi HD Full Movie Free Download PDVDRip 700 MB
Baazaar 2018 HD Full Movie Free Download PDVDRip 700 MB
The Journey Of Karma 2018 HD Full Movie Free Download PDVDRip 700 MB (Poonam Pandey)
Zhongkui Snow Girl and the Dark Crystal (2015) Dual Audio 720p HDRip [Hindi Chinese] 1Gb
Download Mitron 2018 Hindi DVDScr 700 MB Free Moviesjug
Download Manmarziyaan 2018 Hindi pDVDRip 700MB- Moviesjug
Download Genius (2018) Propper Audio Hindi 720p HDRip x264 1.4GB ESubs
Rampage (2018) Dual Audio ORG 720p BRRip Hindi English DD 5.1ch 1GB
Download Ant Man and the Wasp 2018 Dual Audio Hindi English 480p HDTC 300mb
Click Here For Bing.com Searchengine
Click Here For Google.co.in
Click Here For Youtube.com

Video And Audio Full Details (Properties)

General
Skyscraper 2018 Dual Audio ORG Hindi 720p BluRay 900 MB ESubs
Format : Matroska
Format version : Version 4 / Version 2
File size : 901 MiB
Duration : 1 h 42 min
Overall bit rate : 1 230 kb/s
Movie name : Skyscraper 2018 Dual Audio ORG Hindi 720p BluRay 900 MB ESubs

Video
ID : 2
Format : AVC
Format/Info : Advanced Video Codec
Format profile : [email protected]
Format settings : CABAC / 4 Ref Frames
Format settings, CABAC : Yes
Format settings, RefFrames : 4 frames
Codec ID : V_MPEG4/ISO/AVC
Duration : 1 h 42 min
Bit rate : 1 050 kb/s
Width : 1 280 pixels
Height : 528 pixels
Display aspect ratio : 2.40:1
Frame rate mode : Constant
Frame rate : 23.976 (24000/1001) FPS
Color space : YUV
Chroma subsampling : 4:2:0
Bit depth : 8 bits
Scan type : Progressive
Bits/(Pixel*Frame) : 0.065
Stream size : 769 MiB (85%)
Writing library : x264 core 155
aq=1:1.00
Default : Yes
Forced : No

Audio #1
ID : 1
Format : AAC
Format/Info : Advanced Audio Codec
Format profile : HE-AAC / LC
Format settings : Explicit
Codec ID : A_AAC-2
Duration : 1 h 42 min
Bit rate : 32.0 kb/s
Channel(s) : 2 channels
Channel positions : Front: L R
Sampling rate : 48.0 kHz / 24.0 kHz
Frame rate : 23.438 FPS (1024 SPF)
Compression mode : Lossy
Delay relative to video : -12 ms
Stream size : 23.4 MiB (3%)
Title : 300MB At Downloadhub.link
Language : Hindi
Default : No
Forced : Yes

Audio #2
ID : 3
Format : AAC
Format/Info : Advanced Audio Codec
Format profile : LC
Codec ID : A_AAC-2
Duration : 1 h 42 min
Bit rate : 144 kb/s
Channel(s) : 2 channels
Channel positions : Front: L R
Sampling rate : 48.0 kHz
Frame rate : 46.875 FPS (1024 SPF)
Compression mode : Lossy
Delay relative to video : -43 ms
Stream size : 106 MiB (12%)
Default : Yes
Forced : No

Skyscraper 2018 Dual Audio ORG Hindi 720p BluRay 900 MB ESubs

Skyscraper 2018 Dual Audio ORG Hindi 720p BluRay 900 MB ESubs

Skyscraper 2018 Dual Audio ORG Hindi 720p BluRay 900 MB ESubs
Summary
Article Name
Skyscraper 2018 Dual Audio ORG Hindi 720p BluRay 900 MB ESubs
Description
Skyscraper 2018 Dual Audio ORG Hindi 720p BluRay 900 MB ESubs,the ock latest movie skyscraper download hindi dubbed clear audio hd,skyscraper 2018 full movie hindi dubbed hd free download,Skyscraper 2018 hindi movie download 720p,Skyscraper 2018 hindi hd movie free download,Skyscraper 2018 hindi full movie in hd download,Skyscraper 2018 hindi hd movie free download
Author
Publisher Name
Moviesjug.net

Leave a Reply

Your email address will not be published. Required fields are marked *