Rangbaaz 2018 Season 1 All Episodes [01-09] Hindi 720p WEB-DL 2GB Download And Watch

DOWNLOAD EVERY SHOWS/SERIAL OF ‘ZEE5’, ‘HOTSTAR’, ‘VOOT’, ‘SONYLIV’, ONLY FROM THIS SITE AFTER 7 DECEMBER 2018

CLICK HERE FOR MORE INFORMATION  अधिक जानकारी के लिए यहां क्लिक करें।

Rangbaaz 2018 Season 1 All Episodes [01-09] Hindi 720p WEB-DL 2GBRangbaaz 2018 Season 1 All Episodes [01-09] Hindi 720p WEB-DL 2GB,Download Rangbaaz 2018 Season 1 All  09 Episodes Hindi 720p BluRay,Rangbaaz 2018 Season 1 All Episodes Hindi download in hindi in hd for free,Rangbaaz 2018 Season 1 All Episodes Hindi download for pc,Rangbaaz 2018 Season 1 All Episodes download in hindi hd 1080p 720p 480p ,Rangbaaz 2018 Season 1 All Episodes Hindi hindi download for mobile,Rangbaaz 2018 Season 1 All Episodes download in hd for free,Rangbaaz 2018 Season 1 All Episodes download in hindi,(Rangbaaz 2018 Season 1 All Episodes [01-09] Hindi 720p WEB-DL 2GB),Rangbaaz 2018 Season 1 Complete Download Hindi download 720p,download Rangbaaz 2018 Season 1 episode 1 episode 2 episode 3 episode 4 episode 5 Download 300mb 400mb 100mb 1gb free,Rangbaaz 2018 Season 1 All Episodes [01-09] Hindi 720p WEB-DL 1.2GB,Rangbaaz Download All Episode 720p,Rangbaaz Download Complete Season 01 720p,Rangbaaz Download Complete Season 01 720p,Rangbaaz 2018 Season 1 All Episodes [01-09] Hindi 720p WEB-DL 2GB

Rangbaaz 2018 Season 1 All Episodes [01-09] Hindi 720p WEB-DL 2GB

IMDB Ratings: 8.9/10[ 26 VOTES ]
Show: Rangbaaz 2018 Season 1 All Episodes [01-09] Hindi 720p WEB-DL 1.9GB
Genres: Action, Biography, Crime
Language: Hindi
Quality: 720p WEB-DL
Size: 2 GB
Stars:  Saqib Saleem, Tigmanshu Dhulia, Ravi Kishan 

Storyline==}} Shiv Prakash Shukla a 25 year age boy from Gorakhpur becomes the deadliest gangster of Uttar Pradesh in 1990s. He works for powerful politicians and involves in organised crimes. The state government felt danger from him and form STF to get him killed in a police encounter by tracking his mobile phone location. (Rangbaaz 2018 Season 1 All Episodes [01-09] Hindi 720p WEB-DL 2GB)

Rangbaaz 2018 Season 1 All Episodes [01-09] Hindi 720p WEB-DL 2GB

 

Rangbaaz 2018 Season 1 All Episodes [01-09] Hindi 720p WEB-DL 2GB

-=Watch Online Link=-

Rangbaaz 2018 Season 1 All Episodes [01-09] Hindi 720p WEB-DL 2GB

“Rangbaaz Season 1 E 01 Watch Online”

Watch From HXLoad

“Rangbaaz Season 1 E 02 Watch Online”

Watch From HXLoad

“Rangbaaz Season 1 E 03 Watch Online”

Watch From HXLoad

“Rangbaaz Season 1 E 04 Watch Online”

Watch From HXLoad

“Rangbaaz Season 1 E 05 Watch Online”

Watch From HXLoad

“Rangbaaz Season 1 E 06 Watch Online”

Watch From HXLoad

“Rangbaaz Season 1 E 07 Watch Online”

Watch From HXLoad

“Rangbaaz Season 1 E 08 Watch Online”

Watch From HXLoad

“Rangbaaz Season 1 E 09 Watch Online”

Watch From HXLoad

-=Download Links=-

Rangbaaz 2018 Season 1 All Episodes [01-09] Hindi 720p WEB-DL 2GB

“Rangbaaz Season 1 E 01 Download Links”

Download From Filerio
Download From Upload Files
Download From Nofile

“Rangbaaz Season 1 E 02 Download Links”

Download From Filerio
Download From Upload Files
Download From Clicknupload

“Rangbaaz Season 1 E 03 Download Links”

Download From Filerio
Download From Upload Files
Download From Clicknupload

“Rangbaaz Season 1 E 04 Download Links”

Download From Filerio
Download From Upload Files
Download From Clicknupload

“Rangbaaz Season 1 E 05 Download Links

Download From Filerio
Download From Upload Files
Download From Clicknupload

“Rangbaaz Season 1 E 06 Download Links

Download From Filerio
Download From Upload Files
Download From Clicknupload

“Rangbaaz Season 1 E 07 Download Links

Download From Filerio
Download From Upload Files
Download From Clicknupload

“Rangbaaz Season 1 E 08 Download Links

Download From Filerio
Download From Upload Files
Download From Clicknupload

“Rangbaaz Season 1 E 09 Download Links

Download From Filerio
Download From Upload Files
Download From Clicknupload

Thanks For Downloading

Rangbaaz 2018 Season 1 All Episodes [01-09] Hindi 720p WEB-DL 2GB

Visit Our Other Popular Post To Related This

Download The Flash S01 Complete Dual Audio Hindi 720p BluRay
WWE Monday Night Raw 24 September 2018 HDTV 800mb
WWE Smackdown Live 25 September 2018 HDTV 480p 300MB
Download WWE Hell In A Cell 2018 PPV WebRip 1.5 GB
Download WWE Hell In A Cell 2018 PPV WEBRip 480p x264 800MB
WWE Monday Night Raw 10 September 2018 HDTV 480p 700mb
WWE Monday Night Raw 17 September 2018 HDTV 480p 500mb
Download WWE Hell In A Cell 2018 PPV HDTV 720p – Moviesjug
Download Manmarziyaan 2018 Hindi pDVDRip 700MB- Moviesjug
Download Genius (2018) Hindi 720p HDRip x264 1.4GB ESubs
Download Genius (2018) Hindi 480p HDRip x264 400 MB ESubs
Download Robot 2.0 2018 Hindi Dubbed Teaser In HD 1080p 720p 480p 360p
Download Kanchana 3 (Anando Brahma) (2018) Hindi Dubbed 480p HDRip 400 MB
Click Here For Bing.com Searchengine
Click Here For Google.co.in
Click Here For Youtube.com

Video And Audio Full Details EP01

-= EPISODE 01 DETAILS =-

General
Rangbaaz 2018 Season 1 All Episodes [01-09] Hindi 720p WEB-DL 2GB
Format : Matroska
Format version : Version 4 / Version 2
File size : 256 MiB
Duration : 36 min 45 s
Overall bit rate : 973 kb/s
Movie name : Rangbaaz 2018 Season 1 All Episodes [01-09] Hindi 720p WEB-DL 2GB

Video
ID : 1
Format : AVC
Format/Info : Advanced Video Codec
Format profile : [email protected]
Format settings : CABAC / 4 Ref Frames
Format settings, CABAC : Yes
Format settings, RefFrames : 4 frames
Codec ID : V_MPEG4/ISO/AVC
Duration : 36 min 45 s
Bit rate : 842 kb/s
Width : 1 280 pixels
Height : 720 pixels
Display aspect ratio : 16:9
Frame rate mode : Variable
Frame rate : 24.931 FPS
Color space : YUV
Chroma subsampling : 4:2:0
Bit depth : 8 bits
Scan type : Progressive
Bits/(Pixel*Frame) : 0.037
Stream size : 222 MiB (87%)
Title : Rangbaaz 2018 Season 1 All Episodes [01-09] Hindi 720p WEB-DL 2GB
Language : Hindi
Default : Yes
Forced : No
Color range : Limited
Color primaries : BT.709
Transfer characteristics : BT.709
Matrix coefficients : BT.709

Audio
ID : 2
Format : AAC
Format/Info : Advanced Audio Codec
Format profile : LC
Codec ID : A_AAC-2
Duration : 36 min 45 s
Bit rate : 127 kb/s
Channel(s) : 2 channels
Channel positions : Front: L R
Sampling rate : 48.0 kHz
Frame rate : 46.875 FPS (1024 SPF)
Compression mode : Lossy
Delay relative to video : -21 ms
Stream size : 33.3 MiB (13%)
Title : Rangbaaz 2018 Season 1 All Episodes [01-09] Hindi 720p WEB-DL 2GB
Language : Hindi
Default : Yes
Forced : No

-= EPISODE 02 DETAILS =-

General
Rangbaaz 2018 Season 1 All Episodes [01-09] Hindi 720p WEB-DL 2GB
Format : Matroska
Format version : Version 4 / Version 2
File size : 215 MiB
Duration : 30 min 56 s
Overall bit rate : 973 kb/s
Movie name : Rangbaaz 2018 Season 1 All Episodes [01-09] Hindi 720p WEB-DL 2GB

Video
ID : 1
Format : AVC
Format/Info : Advanced Video Codec
Format profile : [email protected]
Format settings : CABAC / 4 Ref Frames
Format settings, CABAC : Yes
Format settings, RefFrames : 4 frames
Codec ID : V_MPEG4/ISO/AVC
Duration : 30 min 56 s
Bit rate : 844 kb/s
Width : 1 280 pixels
Height : 720 pixels
Display aspect ratio : 16:9
Frame rate mode : Constant
Frame rate : 25.000 FPS
Color space : YUV
Chroma subsampling : 4:2:0
Bit depth : 8 bits
Scan type : Progressive
Bits/(Pixel*Frame) : 0.037
Stream size : 187 MiB (87%)
Title : Rangbaaz 2018 Season 1 All Episodes [01-09] Hindi 720p WEB-DL 2GB
Language : Hindi
Default : Yes
Forced : No
Color range : Limited
Color primaries : BT.709
Transfer characteristics : BT.709
Matrix coefficients : BT.709

Audio
ID : 2
Format : AAC
Format/Info : Advanced Audio Codec
Format profile : LC
Codec ID : A_AAC-2
Duration : 30 min 56 s
Bit rate : 127 kb/s
Channel(s) : 2 channels
Channel positions : Front: L R
Sampling rate : 48.0 kHz
Frame rate : 46.875 FPS (1024 SPF)
Compression mode : Lossy
Stream size : 28.1 MiB (13%)
Title : Rangbaaz 2018 Season 1 All Episodes [01-09] Hindi 720p WEB-DL 2GB
Language : Hindi
Default : Yes
Forced : No

Rangbaaz 2018 Season 1 All Episodes [01-09] Hindi 720p WEB-DL 2GB

Rangbaaz 2018 Season 1 All Episodes [01-09] Hindi 720p WEB-DL 2GB

Rangbaaz 2018 Season 1 All Episodes [01-09] Hindi 720p WEB-DL 2GB
Summary
Article Name
Rangbaaz 2018 Season 1 All Episodes [01-09] Hindi 720p WEB-DL 2GB
Description
Rangbaaz 2018 Season 1 All Episodes Hindi hindi download for mobile,Rangbaaz 2018 Season 1 All Episodes download in hd for free,Rangbaaz 2018 Season 1 All Episodes download in hindi
Author
Publisher Name
Moviesjug.net

Leave a Reply

Your email address will not be published. Required fields are marked *