Rampage (2018) Dual Audio ORG 720p BRRip Hindi English DD 5.1ch 1GB

Rampage (2018) Dual Audio ORG
Rampage (2018) Dual Audio ORG 720p BRRip Hindi English DD 5.1ch 1GB

Rampage (2018) Dual Audio ORG 720p BRRip Download,Download Rampage in Hindi in HD, rampage full movie download HD in Hindi, rampage movie dual audio download HD,rampage 2018 film download dual audio in HD,rampage movie 720p download,the rock latest movie rampage download in full hd,rampg,rampege,raempg,rempeg, Rampage (2018) Dual Audio ORG

IMDB Ratings: 6.2/10
Directed: Brad Peyton
Released Date: 13 April 2018
Genres: Action ,Adventure ,Sci-Fi
Languages: Hindi, English
Film Stars: Dwayne Johnson, Naomie Harris, Malin Akerman
Movie Quality: 720p BRRip
File Size: 1044MB

Story: Primatologist Davis (Dwayne Johnson) shares an unshakable bond with George, the extraordinarily intelligent silverback gorilla who has been in his care since he was young. When a greed-fueled corporation’s genetic experiment goes awry, George and other animals across the country are mutated into aggressive super creatures who destroy everything in their path. In this adrenaline-filled ride, Davis tries to find an antidote, not only to halt a global catastrophe but also to save the fearsome creature who was once his friend.

Rampage (2018) Dual Audio ORG
Rampage (2018) Dual Audio ORG 720p BRRip Hindi English DD 5.1ch 1GB
Rampage (2018) Dual Audio ORG
Rampage (2018) Dual Audio ORG 720p BRRip Hindi English DD 5.1ch 1GB

Download Links

Download From Clicknupload
Download From Bdupload
Download From Openload.co
Download From Usercloud
Download From Uploadfiles
Download from Filebebo
Download From Uptobox

Description

General
Audio ORG 720p BRRip www.Moviesjug.in Hindi English DD 5.1 ch.mkv
Format : Matroska
Format version : Version 4 / Version 2
File size : 1.03 GiB
Duration : 1 h 47 min
Overall bit rate : 1 371 kb/s
Movie name : Downloaded From www.Moviesjug.in
Encoded date : UTC 2018-07-09 05:54:32

Video
ID : 1
Format : AVC
Format/Info : Advanced Video Codec
Format profile : [email protected]
Format settings : CABAC / 4 Ref Frames
Format settings, CABAC : Yes
Format settings, RefFrames : 4 frames
Codec ID : V_MPEG4/ISO/AVC
Duration : 1 h 47 min
Bit rate : 1 050 kb/s
Width : 1 280 pixels
Height : 534 pixels
Display aspect ratio : 2.40:1
Original display aspect ratio : 2.40:1
Frame rate mode : Constant
Frame rate : 23.976 FPS
Color space : YUV
Chroma subsampling : 4:2:0
Bit depth : 8 bits
Scan type : Progressive
Bits/(Pixel*Frame) : 0.064
Stream size : 805 MiB (77%)
Title : Downloaded From www.Moviesjug.in
Writing library : x264 core 155
Language : English
Default : Yes
Forced : No

Audio
ID : 2
Format : AC-3
Format/Info : Audio Coding 3
Codec ID : A_AC3
Duration : 1 h 47 min
Bit rate mode : Constant
Bit rate : 160 kb/s
Channel(s) : 6 channels
Channel positions : Front: L C R, Side: L R, LFE
Sampling rate : 44.1 kHz
Frame rate : 28.711 FPS (1536 SPF)
Bit depth : 16 bits
Compression mode : Lossy
Delay relative to video : -43 ms
Stream size : 123 MiB (12%)
Title : Downloaded From www.Moviesjug.in
Language : Hindi
Service kind : Complete Main
Default : Yes
Forced : No

Visit Our Other Popular Post To Related This


Download Manmarziyaan 2018 Hindi pDVDRip 700MB- Moviesjug
Download WWE Hell In A Cell 2018 PPV HDTV 720p – Moviesjug
Download Genius (2018) Propper Audio Hindi 720p HDRip x264 1.4GB ESubs
Download Genius (2018) Hindi 720p HDRip x264 1.4GB ESubs
Download Genius (2018) Hindi 480p HDRip x264 400 MB ESubs
Download Robot 2.0 2018 Hindi Dubbed Teaser In HD 1080p 720p 480p 360p
Click Here For Google

Click Here For Wikipedia
Click Here For Download Bismillah Ki Barkat 1983 Movie


Rampage (2018) Dual Audio ORG

 

 

 

Leave a Reply

Your email address will not be published. Required fields are marked *