Power Unlimited 2 (Touch Chesi Chudu) 2018 Dual Audio 480p HDRip [Hindi Telugu]

Power Unlimited 2 (Touch Chesi Chudu) 2018 Dual Audio 480p HDRip [Hindi Telugu]
Power Unlimited 2018 Hindi Movie Posters,images,Pitures,Screenshots

Power Unlimited 2 (Touch Chesi Chudu) 2018 Dual Audio 480p HDRip [Hindi Telugu],Download Power Unlimited 2 (Touch Chesi Chudu) 2018 480p HDRip, ravi teja movie Power Unlimited 2 (Touch Chesi Chudu) 2018 download, Power Unlimited 2 (Touch Chesi Chudu) 2018 movie download in 300mb,Power Unlimited 2 (Touch Chesi Chudu) 2018 Dual Audio movie hindi dubbed download in hd for mobile,Power Unlimited 2 (Touch Chesi Chudu) 2018 hindi dubbed full Movie download for pc for free, Rashi Khanna and  ravi teja movie Power Unlimited 2 (Touch Chesi Chudu) 2018 download in hindi dubbed origional print, Download Power Unlimited 2 (Touch Chesi Chudu) 2018 movie hindi dubbed 480p full hd,Download Power Unlimited 2 (Touch Chesi Chudu) 2018 ORG Hindi Dubbed 480p HDRip,South Latest movie Download,South Latest Movie Hindi Dubbed Download,South Movie download hd in hindi dubbed,south 2018 movie download hd in hindi dubbed,Power Unlimited 2 (Touch Chesi Chudu) 2018 Dual Audio 480p HDRip [Hindi Telugu],

 Power Unlimited 2 (Touch Chesi Chudu) 2018 Dual Audio 480p HDRip [Hindi Telugu]
Power Unlimited 2018 Hindi Movie Posters,images,Pitures,Screenshots

IMDB Ratings: 5.0/10
Directed:  Vikram Sirikonda
Released Date:  2 February 2018 (India)
Genres: Action ,Comedy
Languages: Hindi Cam + Telugu
Film Stars:  Ravi TejaRaashi KhannaSeerat Kapoor
Movie Quality: 720p HDRip
File Size: 450mb

Storyline==}} Kartikeya (Ravi Teja) is a owner of Kartikeya Industries. He looks after his family very well. His philosophy is “family is most important”. They live in Kadapa. There is a goon named Selvam (Sayaji Shinde) who robs Kartikeya’s machinery often. So Kartikeya’s repeated complaints fall on deaf ear. So Karthikeya challenges that he can solve the case in 2 minutes, so the CI makes him CI for one day to fight Selvam. Kartikeya falls in love with a Choreographer named Pushpa (Raashi Khanna) after few silly talks and fights.

 Power Unlimited 2 (Touch Chesi Chudu) 2018 Dual Audio 480p HDRip [Hindi Telugu]
Power Unlimited 2018 Hindi Movie Posters,images,Pitures,Screenshots
Power Unlimited 2 (Touch Chesi Chudu) 2018 Dual Audio 480p HDRip [Hindi Telugu]
Power Unlimited 2018 Hindi Movie Posters,images,Pitures,Screenshots

Power Unlimited 2 (Touch Chesi Chudu) 2018 Dual Audio 480p HDRip [Hindi Telugu]

Download Links

Download From Openload
Download From Clicknupload
Download from Desiupload
Download From Uploadfiles

Video And Audio Full Details (Properties)

General

Power Unlimited 2 (Touch Chesi Chudu) 2018 Dual Audio 480p HDRip [Hindi Telugu].mkv
Format : Matroska
Format version : Version 4 / Version 2
File size : 548 MiB
Duration : 2 h 22 min
Overall bit rate : 537 kb/s
Movie name :
Power Unlimited 2 (Touch Chesi Chudu) 2018 Dual Audio 480p HDRip [Hindi Telugu]

Video
ID : 1
Format : AVC
Format/Info : Advanced Video Codec
Format profile : [email protected]
Format settings : CABAC / 4 Ref Frames
Format settings, CABAC : Yes
Format settings, RefFrames : 4 frames
Codec ID : V_MPEG4/ISO/AVC
Duration : 2 h 22 min
Bit rate : 380 kb/s
Width : 720 pixels
Height : 302 pixels
Display aspect ratio : 2.40:1
Frame rate mode : Constant
Frame rate : 23.976 (24000/1001) FPS
Color space : YUV
Chroma subsampling : 4:2:0
Bit depth : 8 bits
Scan type : Progressive
Bits/(Pixel*Frame) : 0.073
Stream size : 383 MiB (70%)
Title :
Power Unlimited 2 (Touch Chesi Chudu) 2018 Dual Audio 480p HDRip [Hindi Telugu]
Language : Hindi
Default : Yes
Forced : No
Color range : Limited

Audio #1
ID : 2
Format : AAC
Format/Info : Advanced Audio Codec
Format profile : LC
Codec ID : A_AAC-2
Duration : 2 h 22 min
Bit rate : 63.6 kb/s
Channel(s) : 2 channels
Channel positions : Front: L R
Sampling rate : 44.1 kHz
Frame rate : 43.066 FPS (1024 SPF)
Compression mode : Lossy
Delay relative to video : -23 ms
Stream size : 64.9 MiB (12%)
Title :
Power Unlimited 2 (Touch Chesi Chudu) 2018 Dual Audio 480p HDRip [Hindi Telugu]
Language : Hindi
Default : Yes
Forced : No

Audio #2
ID : 3
Format : AAC
Format/Info : Advanced Audio Codec
Format profile : LC
Codec ID : A_AAC-2
Duration : 2 h 21 min
Bit rate : 96.0 kb/s
Channel(s) : 2 channels
Channel positions : Front: L R
Sampling rate : 44.1 kHz
Frame rate : 43.066 FPS (1024 SPF)
Compression mode : Lossy
Delay relative to video : -23 ms
Stream size : 97.3 MiB (18%)
Title :
Power Unlimited 2 (Touch Chesi Chudu) 2018 Dual Audio 480p HDRip [Hindi Telugu]
Language : Telugu
Default : No
Forced : No

Visit Our Other Popular Post To Related This

18+ X X X Uncensored (2018) S01 All 5 Episodes Hindi 720p HDRip x264 800mb
Power Unlimited 2 (Touch Chesi Chudu) 2018 Dual Audio 720p HDRip [Hindi Telugu]
Download Akira (2016) 720p UNCUT HDRip x264 [Dual Audio] [Hindi Telugu]
Zhongkui Snow Girl and the Dark Crystal (2015) Dual Audio 720p HDRip [Hindi Chinese] 1Gb
Download Saheb Biwi Aur Gangster 3 2018 Hindi 350MB HDRip 480p
Download Saheb Biwi Aur Gangster 3 2018 Hindi 720p HDRip 1Gb
Download Batti Gul Meter Chalu 2018 Hindi PreDvd Rip 700MB
Download Laila Majnu 2018 Hindi DVDScr 700MB x264 Full Movie
Download Mitron 2018 Hindi DVDScr 700 MB Free Moviesjug
Download WWE Hell In A Cell 2018 PPV HDTV 720p – Moviesjug
Download Manmarziyaan 2018 Hindi pDVDRip 700MB- Moviesjug
Download Genius (2018) Propper Audio Hindi 720p HDRip x264 1.4GB ESubs
Rampage (2018) Dual Audio ORG 720p BRRip Hindi English DD 5.1ch 1GB
Download Ant Man and the Wasp 2018 Dual Audio Hindi English 480p HDTC 300mb
Click Here For Bing.com Searchengine
Click Here For Google.co.in
Click Here For Youtube.com

Power Unlimited 2 (Touch Chesi Chudu) 2018 Dual Audio 480p HDRip [Hindi Telugu]

Power Unlimited 2 (Touch Chesi Chudu) 2018 Dual Audio 480p HDRip [Hindi Telugu]

Power Unlimited 2 (Touch Chesi Chudu) 2018 Dual Audio 480p HDRip [Hindi Telugu]

Leave a Reply

Your email address will not be published. Required fields are marked *