Parchhayee Zee5 S01E03 1080p/720p/480p Download/Watch Free

DOWNLOAD EVERY SHOWS/SERIAL OF ‘ZEE5’, ‘HOTSTAR’, ‘VOOT’, ‘SONYLIV’, ONLY FROM THIS SITE AFTER 7 DECEMBER 2018

Parchhayee Zee5 S01E03 1080p/720p/480p Download/Watch Free
Parchhayee Zee5 S01E03 1080p/720p/480p Download/Watch Free,zee5 web series Parchhayee  Ghsot Stories season 1 Episode 3 download in full hd for free,Parchhayee episode 3 watch online free in hd, parchhayee ghost stories by ruskin bond episode 3 download and watch online,Parchhayee all episodes download hd openload indishare clicknupload desiupload,(Parchhayee Zee5 S01E03 1080p/720p/480p Download/Watch Free)Parchhayee episode 03 hindi webseries download hd 720p,Parchhayee season 1 episode 3 hindi webseries 2019 download full hd free,Parchhayee 2019 latest hindi webseries download for mobile,Parchhayee 2019 latest hindi webseries download for pc,Parchhayee hd video episodes download for free,Parchhayee hindi series hd download,Parchhayee series fast download, Parchhayee webseries fast download link,Parchhayee series torrent,Parchhayee series torrent download,(Parchhayee Zee5 S01E03 1080p/720p/480p Download/Watch Free)

-= “MEDIA INFO” =-

Parchhayee Zee5 S01E03 1080p/720p/480p Download/Watch Free
WebSeries Name : Parchhayee
Genres: Horror , Thiller
Language: Hindi
Quality: 1080p/720p/480p WebRip
Size: 700MB/600MB/120MB

Storyline==}} This winter, there’s no escaping the shivers as ZEE5 Original ‘Parchhayee’ is all set to bring to life the most bone-chilling horror tales of celebrated author Ruskin Bond. The mysteries unravel from 15th January! Here’s a first look at ‘Parchhayee. (Parchhayee Zee5 S01E03 1080p/720p/480p Download/Watch Free)

-= “SCREENSHOTS” =-

Parchhayee Zee5 S01E03 1080p/720p/480p Download/Watch Free

Parchhayee Zee5 S01E03 1080p/720p/480p Download/Watch Free

-= “WATCH ONLINE AND DOWNLOAD LINKS” =-

Parchhayee Zee5 S01E03 1080p/720p/480p Download/Watch Free

-= “Watch Online Links” =-

(Use “Google Chrome” Browser For Better Online Watch Or Stream)

Watch From Rapivideo 720p
Watch From Filescdn 720p
Watch From Flixx555 720p
Watch From Nxload 720p

-= “1080P Download Links” =-

Download From Desiupload
Download From Clicknupload
Download From Uploadfiles

-= “720P Download Links” =-

Download From Desiupload
Download From Clicknupload
Download From Uploadfiles

-= “480P Download Links” =-

Download From Desiupload
Download From Clicknupload
Download From Uploadfiles

Thanks for Downloading…………

Parchhayee Zee5 S01E03 1080p/720p/480p Download/Watch Free

-= “Visit Our Other Popular Post To Related This” =-

Downlolad Sanju (2018) Hindi HDTVRip 480p x264 400 MB ESub Free
Download Jalebi 2018 Hindi Full Movie PDVDRip 700MB Free Moviesjug
Download Manmarziyaan 2018 Hindi pDVDRip 700MB- Moviesjug
Download Genius (2018) Propper Audio Hindi 720p HDRip x264 1.4GB ESubs
Rampage (2018) Dual Audio ORG 720p BRRip Hindi English DD 5.1ch 1GB
Click Here For Bing.com Searchengine
Click Here For Google.co.in
Click Here For Youtube.com

-= “Video And Audio Full Details (Properties)” =- 720p

General
Parchhayee Zee5 S01E03 1080p/720p/480p Download/Watch
Format : Matroska
Format version : Version 4 / Version 2
File size : 658 MiB
Duration : 50 min 5 s
Overall bit rate : 1 837 kb/s
Movie name : Parchhayee Zee5 S01E03 1080p/720p/480p Download/Watch

Video
ID : 2
Format : AVC
Format/Info : Advanced Video Codec
Format profile : [email protected]
Format settings : CABAC / 4 Ref Frames
Format settings, CABAC : Yes
Format settings, RefFrames : 4 frames
Codec ID : V_MPEG4/ISO/AVC
Duration : 50 min 5 s
Bit rate : 1 800 kb/s
Width : 1 280 pixels
Height : 720 pixels
Display aspect ratio : 16:9
Frame rate mode : Constant
Frame rate : 25.000 FPS
Color space : YUV
Chroma subsampling : 4:2:0
Bit depth : 8 bits
Scan type : Progressive
Bits/(Pixel*Frame) : 0.078
Stream size : 623 MiB (95%)
Title : Parchhayee Zee5 S01E03 1080p/720p/480p Download/Watch
Language : Hindi
Default : Yes
Forced : No

Audio
ID : 1
Format : AAC
Format/Info : Advanced Audio Codec
Format profile : LC
Codec ID : A_AAC-2
Duration : 50 min 5 s
Bit rate : 96.0 kb/s
Channel(s) : 2 channels
Channel positions : Front: L R
Sampling rate : 48.0 kHz
Frame rate : 46.875 FPS (1024 SPF)
Compression mode : Lossy
Stream size : 34.7 MiB (5%)
Title : Parchhayee Zee5 S01E03 1080p/720p/480p Download/Watch
Language : Hindi
Default : Yes
Forced : No

Parchhayee Zee5 S01E03 1080p/720p/480p Download/Watch

Parchhayee Zee5 S01E03 1080p/720p/480p Download/Watch

Parchhayee Zee5 S01E03 1080p/720p/480p Download/Watch
Summary
Article Name
Parchhayee Zee5 S01E03 1080p/720p/480p Download/Watch
Description
parchhayee ghost stories by ruskin bond episode 3 download and watch online,Parchhayee all episodes download hd openload indishare clicknupload desiupload
Author
Publisher Name
Moviesjug.net

Leave a Reply

Your email address will not be published. Required fields are marked *