Namaste England 2018 Hindi WEBHD 720P/480p Full Movie DOWNLOAD

Namaste England 2018 Hindi WEBHD 720P/480p Full Movie DOWNLOAD

Namaste England 2018 Hindi WEBHD 720P/480p Full Movie DOWNLOAD

Namaste England 2018 Hindi WEBHD 720P/480p Full Movie DOWNLOAD

IMDB Ratings: 2.2/10
Directed: Vipul Amrutlal Shah
Released Date: 18 October 2018 (India)
Genres: Comedy, Romance
Languages: Hindi
Film Stars: Parineeti Chopra, Hiten Patel, Arjun Kapoor
Movie Quality: PDVDRip
File Size: 700MB

Storyline==}} Namaste England, starring Arjun Kapoor and Parineeti Chopra is a romantic comedy directed and co-produced by Vipul Amrutlal Shah. The film is the sequel to Namastey London (2007).Namaste England 2018 Hindi WEBHD 720P/480p Full Movie DOWNLOAD

Namaste England 2018 Hindi WEBHD 720P/480p Full Movie DOWNLOAD


Namaste England 2018 Hindi WEBHD 720P/480p Full Movie DOWNLOAD

-=Download Links=-

Namaste England 2018 Hindi WEBHD 720P/480p Full Movie DOWNLOAD

Download From Openload
Download From Clicknupload
Download From Desiupload
Download From Uploadfiles

Thanks for Downloading……

Namaste England 2018 Hindi WEBHD 720P/480p Full Movie DOWNLOAD

Visit Our Other Popular Post To Related This

Download WWE Monday Night Raw 15 October 2018 HDTV 800mb
Download Comedy Circus 2018 Episode 10 14 October 2018 720p HDTV 350Mb
Download Indian Idol Season 10 Episode 30 14th October 2018 720p HDTV 550Mb
Downlolad Sanju Full Movie (2018) Hindi WEB HD 480p 400 MB ESub
Downlolad Sanju (2018) Hindi HDTVRip 720p AAC 1.2 GB ESub Free
Download Jalebi 2018 Hindi Full Movie PDVDRip 700MB Free Moviesjug
Download Mitron 2018 Hindi DVDScr 700 MB Free Moviesjug
Download Fryday 2018 Hindi Full Movie PDVDRip 700MB Free Moviesjug
Download Pataakha 2018 Hindi Full Movie PDVDRip 700MB Free Moviesjug
Download Helicopter Eela 2018 Hindi Full Movie PDVDRip 700MB Free
Download FryDay (2018) Hindi 720p VER 2 AAC HQ DVD SCR x264 1.5 GB
Downlolad Soorma (2018) Hindi HDRip 720p AAC 1.2 GB ESub Free
Download BHARAT: The Great Leader (Bharat Ane Nenu) 2018 Hindi Dubbed Trailer In HD 1080p 720p 480p 360p
Download Thadaka 2 Yuddham Sharanam (2018) 720p HDRip Hindi Dubbed 1GB
Download Fanney Khan (2018) Hindi Proper HDRip 480p 350MB
Fanney Khan (2018) Hindi Proper HDRip 720p AAC 1.2GB ESub
Haseena (2018) Hindi AAC 720p HDRip x264 900 MB
Download Karwaan (2018) Hindi 720p HDRip 850Mb
Download Mulk (2018) Hindi 720p HDRip x264 AAC 1.2Gb
Download Dhadak (2018) Hindi 720p HDRip x264 950Mb
Download Sui Dhaaga Made in India (2018) Hindi PDVDRip x264 AAC 700MB
18+ X X X Uncensored (2018) S01 All 5 Episodes Hindi 720p HDRip x264 800mb
Download Saheb Biwi Aur Gangster 3 2018 Hindi 350MB HDRip 480p
Download Batti Gul Meter Chalu 2018 Hindi PreDvd Rip 700MB
Download Laila Majnu 2018 Hindi DVDScr 700MB x264 Full Movie
Click Here For Bing.com Searchengine
Click Here For Google.co.in
Click Here For Youtube.com

Video And Audio Full Details (Properties)

General
Namaste England movie download openload,Namaste England full movie download,Namaste England movie in 480p,Namaste England free download full movie 700mb,Namaste England movie download 720p mb,Namaste England full movie download in 300mb,Namaste England full movie download 480p free,Namaste England full movie hd 480p download,download full hindi movie Namaste England 720p 700mb,Namaste England full movie download free,Namaste England movie download 720p,new movie Namaste England full hindi hd print download,Namaste England full movie download,

Download Namaste England 2018 Hindi Full Movie DVDScr 400MB Free
Format : Matroska
Format version : Version 4 / Version 2
File size : 422 MiB
Duration : 2 h 8 min
Overall bit rate : 461 kb/s
Movie name : Download Namaste England 2018 Hindi Full Movie DVDScr 400MB Free

Video
Download Namaste England 2018 Hindi Full Movie DVDScr 400MB Free,latest bollywood movie Namaste England 2018 download in hd quality,free download bollywood movie Namaste England 2018 in hd quality for pc,Namaste England full hd bollywood movie download 720p,Namaste England openload bollywood movie download,filmywap 2018 Namaste England bollywood movie download hd 720p,Download Namaste England full movie in hd for free

ID : 1
Format : AVC
Format/Info : Advanced Video Codec
Format profile : [email protected]
Format settings : CABAC / 4 Ref Frames
Format settings, CABAC : Yes
Format settings, RefFrames : 4 frames
Codec ID : V_MPEG4/ISO/AVC
Duration : 2 h 8 min
Bit rate : 397 kb/s
Width : 608 pixels
Height : 280 pixels
Display aspect ratio : 2.2:1
Frame rate mode : Constant
Frame rate : 25.000 FPS
Color space : YUV
Chroma subsampling : 4:2:0
Bit depth : 8 bits
Scan type : Progressive
Bits/(Pixel*Frame) : 0.093
Stream size : 362 MiB (86%)
Title : Download Namaste England 2018 Hindi Full Movie DVDScr 400MB Free
Language : Hindi
Default : Yes
Forced : No

Audio
ID : 2
Format : MPEG Audio
Format version : Version 1
Format profile : Layer 3
Format settings : Joint stereo / MS Stereo
Codec ID : A_MPEG/L3
Codec ID/Hint : MP3
Duration : 2 h 7 min
Bit rate mode : Constant
Bit rate : 64.0 kb/s
Channel(s) : 2 channels
Sampling rate : 48.0 kHz
Frame rate : 41.667 FPS (1152 SPF)
Compression mode : Lossy
Stream size : 58.6 MiB (14%)
Title : Namaste England 2018 Hindi WEBHD 720P/480 Full Movie DOWNLOAD
Language : Hindi
Default : Yes
Forced : No

Namaste England 2018 Hindi WEBHD 720P/480p Full Movie DOWNLOAD

Namaste England 2018 Hindi WEBHD 720P/480p Full Movie DOWNLOAD

Namaste England 2018 Hindi WEBHD 720P/480p Full Movie DOWNLOAD
Summary
Article Name
Namaste England 2018 Hindi WEBHD 720P/480p Full Movie DOWNLOAD
Description
Namaste England 2018 Hindi WEBHD 720P/480p Full Movie DOWNLOAD

Leave a Reply

Your email address will not be published. Required fields are marked *