Mr. Deeds 2002 BluRay 720p ORG Dual Audio [Hindi + Eng] ESubs 800MB

Mr. Deeds 2002 BluRay 720p ORG Dual Audio [Hindi + Eng] ESubs 800MB
Mr. Deeds 2002 BluRay 720p ORG Dual Audio [Hindi + Eng] ESubs 800MB

Mr. Deeds 2002 BluRay 720p ORG Dual Audio [Hindi + Eng] ESubs 800MB,Mr. Deeds 2002 movie hindi original audio download 720p,Mr Deeds 2002 hd movie free org audio print download,Mr. Deed 2002 full movie in hd download org print,Mr Deeds 2002 origional hd movie free download,download movie Mr. Deeds 2002 org audio print in hd,Mr Deeds 2002 full movie download origional audios 1080p,Mr. Deed 2002 original print full hd movie download filmywap,Mr. Deeds 2002 full movie download 720p dual audio org free,(Mr. Deeds 2002 BluRay 720p ORG Dual Audio [Hindi + Eng] ESubs 800MB),Mr. Deeds 2002 full hd org movie download 720p in hindi Audios,Deed 2002 full movie download in hindi origional mp4,Mr Deeds 2002 full movie download utorrent free download in full hd,Mr. Deeds 2002 BluRay 720p ORG Dual Audio [Hindi + Eng] ESubs 800MB

The Nun 2018 BluRay 720p ORG Dual Audio [Hindi + Eng] ESubs 750MB

IMDB Ratings: 5.8/10 [Votes= 124,101]
Genres: Comedy , Romance
Release Date: 28 June 2002
Language: ORG Audios Hindi + English
Quality: 720p BluRay
Size: 846 MB
Director: Steven Brill
Writer: Clarence Budington Kelland , Robert Riskin
Stars: Adam Sandler, Winona Ryder, John Turturro

Storyline==}} When Longfellow Deeds, a small-town pizzeria owner and poet, inherits $40 billion from his deceased uncle, he quickly begins rolling in a different kind of dough. Moving to the big city, Deeds finds himself besieged by opportunists all gunning for their piece of the pie. Babe, a television tabloid reporter, poses as an innocent small-town girl to do an exposé on Deeds. Of course, Deeds’ sincere naiveté has Babe falling in love with him instead. Ultimately, Deeds comes to find that money truly has the power to change things, but it doesn’t necessarily need to change him. (Mr. Deeds 2002 BluRay 720p ORG Dual Audio [Hindi + Eng] ESubs 800MB)

Mr. Deeds 2002 BluRay 720p ORG Dual Audio [Hindi + Eng] ESubs 800MB

Mr. Deeds 2002 BluRay 720p ORG Dual Audio [Hindi + Eng] ESubs 800MB

Mr. Deeds 2002 BluRay 720p ORG Dual Audio [Hindi + Eng] ESubs 800MB
Mr. Deeds 2002 BluRay 720p ORG Dual Audio [Hindi + Eng] ESubs 800MB


Mr. Deeds 2002 BluRay 720p ORG Dual Audio [Hindi + Eng] ESubs 800MB

-=Watch Online Links=-

Mr. Deeds 2002 BluRay 720p ORG Dual Audio [Hindi + Eng] ESubs 800MB

-=Download Links=-

Mr. Deeds 2002 BluRay 720p ORG Dual Audio [Hindi + Eng] ESubs 800MB

 

Download From Filerio
Download from Desiupload
Download From TusFiles
Download From Vidoza
Download from Clicknupload

Thanks for Downloading…………

Mr. Deeds 2002 BluRay 720p ORG Dual Audio [Hindi + Eng] ESubs 800MB

Visit Our Other Popular Post To Related This

The Journey Of Karma 2018 HD Full Movie Free Download PDVDRip 700 MB
Incredibles 2 2018 Dual Audio [Hindi English] 480p HDRip 450Mb ESubs
Power Unlimited 2 2018 ORG Dual Audio UNCUT 480p HDRip [Hindi Telugu]
Power Unlimited 2 2018 UNCUT ORG Dual Audio 720p HDRip [Hindi Telugu]
Download Game of Thrones S02 Complete Dual Audio Hindi BluRay 720p
Download The Flash S01 Complete Dual Audio Hindi 720p BluRay
Download Indian Idol Season 10 Episode 32 21st October 2018 720p HDTV 800Mb
Download Indian Idol Season 10 Episode 31 20th October 2018 720p HDTV 800Mb
Download Comedy Circus 2018 Episode 11 20th October 2018 720p HDTV 400Mb
Download Comedy Circus 2018 Episode 12 21st October 2018 720p HDTV 400Mb
Downlolad Sanju (2018) Hindi HDTVRip 480p x264 400 MB ESub Free
Download Jalebi 2018 Hindi Full Movie PDVDRip 700MB Free Moviesjug
Download Mitron 2018 Hindi DVDScr 700 MB Free Moviesjug
Download Fryday 2018 Hindi Full Movie PDVDRip 700MB Free Moviesjug
Download Pataakha 2018 Hindi Full Movie PDVDRip 700MB Free Moviesjug
Download Helicopter Eela 2018 Hindi Full Movie PDVDRip 700MB Free
Download FryDay (2018) Hindi 720p VER 2 AAC HQ DVD SCR x264 1.5 GB
Downlolad Soorma (2018) Hindi HDRip 720p AAC 1.2 GB ESub Free
Download L7 (2018) Hindi Dubbed 720p HDRip x264 900MB
Download Game of Thrones S02 Complete Dual Audio Hindi BluRay 720p
Download The Flash S01 Complete Dual Audio Hindi 720p BluRay
Download WWE Smackdown Live 09 October 2018 HDTV 480p 300MB
Download WWE Monday Night Raw 08 October 2018 HDTV 800mb
Haseena (2018) Hindi AAC 720p HDRip x264 900 MB
Download Karwaan (2018) Hindi 720p HDRip 850Mb
Ant Man And The Wasp (2018) Dual Audio [Hindi Cleaned Eng] HDRip 720p x264 ESubs 1Gb
Download Dashing Diljala 2018 Hindi Dubbed 720p HDRip 850Mb
Download Mulk (2018) Hindi 720p HDRip x264 AAC 1.2Gb
Download Dhadak (2018) Hindi 720p HDRip x264 950Mb
Jurassic World Fallen Kingdom (2018) Hindi ORG Dual Audio 720p BluRay 1GB
Download Sui Dhaaga Made in India (2018) Hindi PDVDRip x264 AAC 700MB
Download Akira (2016) 720p UNCUT HDRip x264 [Dual Audio] [Hindi Telugu]
Zhongkui Snow Girl and the Dark Crystal (2015) Dual Audio 720p HDRip [Hindi Chinese] 1Gb
Download Saheb Biwi Aur Gangster 3 2018 Hindi 350MB HDRip 480p
Download Saheb Biwi Aur Gangster 3 2018 Hindi 720p HDRip 1Gb
Download Batti Gul Meter Chalu 2018 Hindi PreDvd Rip 700MB
Download Laila Majnu 2018 Hindi DVDScr 700MB x264 Full Movie
Download Mitron 2018 Hindi DVDScr 700 MB Free Moviesjug
Download WWE Hell In A Cell 2018 PPV HDTV 720p – Moviesjug
Download Manmarziyaan 2018 Hindi pDVDRip 700MB- Moviesjug
Download Genius (2018) Propper Audio Hindi 720p HDRip x264 1.4GB ESubs
Rampage (2018) Dual Audio ORG 720p BRRip Hindi English DD 5.1ch 1GB
Download Ant Man and the Wasp 2018 Dual Audio Hindi English 480p HDTC 300mb
Click Here For Bing.com Searchengine
Click Here For Google.co.in
Click Here For Youtube.com

Video And Audio Full Details (Properties)

General
Mr. Deeds (2002) BluRay 720p [MoviesJug.Net] [Dual Audio] [Hindi ORG + English] x264 EngSubs 800MB.mkv
Format : Matroska
Format version : Version 4 / Version 2
File size : 847 MiB
Duration : 1 h 36 min
Overall bit rate : 1 225 kb/s
Movie name : Downloaded From [MoviesJug.Net]

Video
ID : 1
Format : AVC
Format/Info : Advanced Video Codec
Format profile : [email protected]
Format settings : CABAC / 5 Ref Frames
Format settings, CABAC : Yes
Format settings, RefFrames : 5 frames
Codec ID : V_MPEG4/ISO/AVC
Duration : 1 h 36 min
Bit rate : 1 073 kb/s
Width : 1 280 pixels
Height : 692 pixels
Display aspect ratio : 1.85:1
Frame rate mode : Constant
Frame rate : 23.976 (24000/1001) FPS
Color space : YUV
Chroma subsampling : 4:2:0
Bit depth : 8 bits
Scan type : Progressive
Bits/(Pixel*Frame) : 0.051
Stream size : 741 MiB (88%)
Title : Downloaded From [MoviesJug.Net]
Writing library : x264 core 152
Language : English
Default : Yes
Forced : No

Audio #1
ID : 2
Format : AAC
Format/Info : Advanced Audio Codec
Format profile : HE-AAC / LC
Format settings : Explicit
Codec ID : A_AAC-2
Duration : 1 h 36 min
Bit rate : 66.2 kb/s
Channel(s) : 2 channels
Channel positions : Front: L R
Sampling rate : 44.1 kHz / 22.05 kHz
Frame rate : 21.533 FPS (1024 SPF)
Compression mode : Lossy
Stream size : 45.9 MiB (5%)
Title : Downloaded From [MoviesJug.Net]
Language : Hindi
Default : Yes
Forced : No

Audio #2
ID : 3
Format : AAC
Format/Info : Advanced Audio Codec
Format profile : LC
Codec ID : A_AAC-2
Duration : 1 h 36 min
Bit rate : 83.0 kb/s
Channel(s) : 2 channels
Channel positions : Front: L R
Sampling rate : 48.0 kHz
Frame rate : 46.875 FPS (1024 SPF)
Compression mode : Lossy
Delay relative to video : 9 ms
Stream size : 57.4 MiB (7%)
Title : Downloaded From [MoviesJug.Net]
Language : English
Default : No
Forced : No

Text
ID : 4
Format : UTF-8
Codec ID : S_TEXT/UTF8
Codec ID/Info : UTF-8 Plain Text
Duration : 1 h 28 min
Bit rate : 85 b/s
Count of elements : 1483
Stream size : 55.6 KiB (0%)
Title : Downloaded From [MoviesJug.Net]
Language : English
Default : Yes
Forced : No

Mr. Deeds 2002 BluRay 720p ORG Dual Audio [Hindi + Eng] ESubs 800MB

Mr. Deeds 2002 BluRay 720p ORG Dual Audio [Hindi + Eng] ESubs 800MB

Mr. Deeds 2002 BluRay 720p ORG Dual Audio [Hindi + Eng] ESubs 800MB
Summary
Article Name
Mr. Deeds 2002 BluRay 720p ORG Dual Audio [Hindi + Eng] ESubs 800MB
Description
Mr. Deeds 2002 BluRay 720p ORG Dual Audio [Hindi + Eng] ESubs 800MB,Mr. Deeds 2002 movie hindi original audio download 720p,Mr Deeds 2002 hd movie free org audio print download,Mr. Deed 2002 full movie in hd download org print,Mr Deeds 2002 origional hd movie free download,download movie Mr. Deeds 2002 org audio print in hd,Mr Deeds 2002 full movie download origional audios 1080p,Mr. Deed 2002 original print full hd movie download filmywap,
Author
Publisher Name
Moviesjug.Net

Leave a Reply

Your email address will not be published. Required fields are marked *