Mohalla Assi 2018 Hindi HD Full Movie Free Download PDVDRip 700 MB

Mohalla Assi 2018 Hindi HD Full Movie Free Download PDVDRip 700 MB
Mohalla Assi 2018 Hindi HD Full Movie Free Download PDVDRip 700 MB

Mohalla Assi 2018 Hindi HD Full Movie Free Download PDVDRip 700 MB,Mohalla Assi 2018 movie download 720p,Mohalla Assi 2018 hd movie free download,Mohalla Assi 2018 full movie in hd download,Mohalla Assi 2018 hd movie free download,download movie Mohalla Assi 2018 in hd,Mohalla Assi 2018 full movie download 1080p,Mohalla Assi 2018 full movie download filmywap,Mohalla Assi 2018 full movie download 720p free,(Mohalla Assi 2018 Hindi HD Full Movie Free Download PDVDRip 700 MB),Mohalla Assi 2018 full movie download 720p in hindi,Mohalla Assi 2018 full movie download in hindi mp4,Mohalla Assi 2018 full movie download utorrent free download,Mohalla Assi 2018 Hindi HD Full Movie Free Download PDVDRip 700 MB

Mohalla Assi 2018 full movie dailymotion download,Mohalla Assi 2018 full movie download 720p filmywap hd download,Mohalla Assi 2018 movie download 720p,Mohalla Assi 2018 movie hd download ,Mohalla Assi 2018 full movie in hd download,download Mohalla Assi 2018 movie hd,Mohalla Assi 2018 hd movie free download,full movie Mohalla Assi 2018 download,Mohalla Assi full movie full hd,download movie Mohalla Assi Saif Ali Khan 2018 in hd,Mohalla Assi 2018 full movie hindi download,Mohalla Assi 2018 full movie 720p download,Mohalla Assi 2018 movie download hindi,Mohalla Assi 2018 2017 full movie download,Mohalla Assi 2018 free download,Mohalla Assi 2018 movie free download hd,Mohalla Assi 2018 hindi full movie download,Mohalla Assi 2018 full hd movie 2017,Mohalla Assi 2018 film hd download,Mohalla Assi 2018 full hd,Mohalla Assi 2018 movie hindi download,

 

Mohalla Assi 2018 Hindi HD Full Movie Free Download PDVDRip 700 MB
Mohalla Assi 2018 Hindi HD Full Movie Free Download PDVDRip 700 MB

Mohalla Assi 2018 Hindi HD Full Movie Free Download PDVDRip 700 MB
IMDB Ratings: 7.6/1
0
Directed: Chandra Prakash Dwivedi
Released Date: 26 October 2018 (india)
Genres: Comedy , Drama
Languages: Hindi
Film Stars: Seema Azmi, Mithilesh Chaturvedi, Sunny Deol |
Movie Quality: PDVDRip
File Size: 700MB

Storyline==}} Based on Dr. Kashinath Singh’s Hindi novel ‘Kashi Ka Assi’, a religious satire based on the commercialization of the pilgrimage city, and fake gurus who lure the visitors and tourists. Assi Ghat is a burning ghat on the river banks of Ganges flowing into the middle of Banaras, India. The film is based in a famous, historical locality by the ghat, on the southern end of Banaras (Varanasi).(Mohalla Assi 2018 Hindi HD Full Movie Free Download PDVDRip 700 MB)

Mohalla Assi 2018 Hindi HD Full Movie Free Download PDVDRip 700 MB
Mohalla Assi 2018 Hindi HD Full Movie Free Download PDVDRip 700 MB
Mohalla Assi 2018 Hindi HD Full Movie Free Download PDVDRip 700 MB
Mohalla Assi 2018 Hindi HD Full Movie Free Download PDVDRip 700 MB

Mohalla Assi 2018 Hindi HD Full Movie Free Download PDVDRip 700 MB

-=Download Links=-

Mohalla Assi 2018 Hindi HD Full Movie Free Download PDVDRip 700 MB
Mohalla Assi 2018 Hindi HD Full Movie Free Download PDVDRip 700 MB

Download From Clicknupload
Download From Desiupload

Watch Mohall Assi 2018 Hindi Movie Trailer


Thanks for Downloading……

Mohalla Assi 2018 Hindi HD Full Movie Free Download PDVDRip 700 MB
Mohalla Assi 2018 Hindi HD Full Movie Free Download PDVDRip 700 MB

Visit Our Other Popular Post To Related This

The Journey Of Karma 2018 HD Full Movie Free Download PDVDRip 700 MB (Poonam Pandey)
Baazaar 2018 HD Full Movie Free Download PDVDRip 700 MB
Incredibles 2 2018 Dual Audio [Hindi English] 480p HDRip 450Mb ESubs
Incredibles 2 2018 Dual Audio [Hindi English] 720p HDRip 1Gb ESubs
Download WWE Monday Night Raw 15 October 2018 HDTV 800mb
Download Comedy Circus 2018 Episode 10 14 October 2018 720p HDTV 350Mb
Download Indian Idol Season 10 Episode 30 14th October 2018 720p HDTV 550Mb
Downlolad Sanju Full Movie (2018) Hindi WEB HD 480p 400 MB ESub
Downlolad Sanju (2018) Hindi HDTVRip 720p AAC 1.2 GB ESub Free
Download Jalebi 2018 Hindi Full Movie PDVDRip 700MB Free Moviesjug
Download Mitron 2018 Hindi DVDScr 700 MB Free Moviesjug
Download Fryday 2018 Hindi Full Movie PDVDRip 700MB Free Moviesjug
Download Pataakha 2018 Hindi Full Movie PDVDRip 700MB Free Moviesjug
Download Helicopter Eela 2018 Hindi Full Movie PDVDRip 700MB Free
Download FryDay (2018) Hindi 720p VER 2 AAC HQ DVD SCR x264 1.5 GB
Downlolad Soorma (2018) Hindi HDRip 720p AAC 1.2 GB ESub Free
Download Fanney Khan (2018) Hindi Proper HDRip 480p 350MB
Haseena (2018) Hindi AAC 720p HDRip x264 900 MB
Download Karwaan (2018) Hindi 720p HDRip 850Mb
Download Dhadak (2018) Hindi 720p HDRip x264 950Mb
Download Sui Dhaaga Made in India (2018) Hindi PDVDRip x264 AAC 700MB
18+ X X X Uncensored (2018) S01 All 5 Episodes Hindi 720p HDRip x264 800mb
Click Here For Bing.com Searchengine
Click Here For Google.co.in
Click Here For Youtube.com

Video And Audio Full Details (Properties)

General
Mohalla Assi 2018 Hindi HD Full Movie Free Download PDVDRip 700 MB
Format : Matroska
Format version : Version 4 / Version 2
File size : 731 MiB
Duration : 2 h 25 min
Overall bit rate : 703 kb/s
Movie name : Mohalla Assi 2018 Hindi HD Full Movie Free Download PDVDRip 700 MB

Video
ID : 1
Format : AVC
Format/Info : Advanced Video Codec
Format profile : [email protected]
Format settings : CABAC / 4 Ref Frames
Format settings, CABAC : Yes
Format settings, RefFrames : 4 frames
Codec ID : V_MPEG4/ISO/AVC
Duration : 2 h 25 min
Bit rate : 591 kb/s
Width : 720 pixels
Height : 304 pixels
Display aspect ratio : 2.35:1
Frame rate mode : Constant
Frame rate : 23.976 (24000/1001) FPS
Color space : YUV
Chroma subsampling : 4:2:0
Bit depth : 8 bits
Scan type : Progressive
Bits/(Pixel*Frame) : 0.113
Stream size : 613 MiB (84%)
Title : Mohalla Assi 2018 Hindi HD Full Movie Free Download PDVDRip 700 MB
Writing library : x264 core 155 r2893 b00bcaf
Language : Hindi
Default : Yes
Forced : No
Color range : Limited
Color primaries : BT.601 NTSC
Transfer characteristics : BT.709
Matrix coefficients : BT.601

Audio
ID : 2
Format : AAC
Format/Info : Advanced Audio Codec
Format profile : LC
Codec ID : A_AAC-2
Duration : 2 h 25 min
Bit rate : 111 kb/s
Channel(s) : 2 channels
Channel positions : Front: L R
Sampling rate : 48.0 kHz
Frame rate : 46.875 FPS (1024 SPF)
Compression mode : Lossy
Delay relative to video : 9 ms
Stream size : 115 MiB (16%)
Title : Mohalla Assi 2018 Hindi HD Full Movie Free Download PDVDRip 700 MB
Language : Hindi
Default : Yes
Forced : No

Mohalla Assi 2018 Hindi HD Full Movie Free Download PDVDRip 700 MB

Mohalla Assi 2018 Hindi HD Full Movie Free Download PDVDRip 700 MB

Mohalla Assi 2018 Hindi HD Full Movie Free Download PDVDRip 700 MB
Summary
Article Name
Mohalla Assi 2018 Hindi HD Full Movie Free Download PDVDRip 700 MB
Description
Mohalla Assi 2018 Hindi HD Full Movie Free Download PDVDRip 700 MB,Mohalla Assi 2018 movie download 720p,Mohalla Assi 2018 hd movie free download,Mohalla Assi 2018 full movie in hd download,Mohalla Assi 2018 hd movie free download,download movie Mohalla Assi 2018 in hd,Mohalla Assi 2018 full movie download 1080p,Mohalla Assi 2018 full movie download filmywap
Author
Publisher Name
Moviesjug.net

Leave a Reply

Your email address will not be published. Required fields are marked *