Mirzapur 2018 Season 1 All Episodes [01-09] Hindi 480p WEB-DL 1.2GB

DOWNLOAD EVERY SHOWS/SERIAL OF ‘ZEE5’, ‘HOTSTAR’, ‘VOOT’, ‘SONYLIV’, ONLY FROM THIS SITE AFTER 7 DECEMBER 2018

CLICK HERE FOR MORE INFORMATION  अधिक जानकारी के लिए यहां क्लिक करें।

 

Mirzapur 2018 Season 1 All Episodes [01-09] Hindi 480p WEB-DL 1.2GB
Mirzapur 2018 Season 1 All Episodes [01-09] Hindi 480p WEB-DL 1.2GB

Mirzapur 2018 Season 1 All Episodes [01-09] Hindi 480p WEB-DL 1.2GB,Download Mirzapur 2018 Season 1 All  09 Episodes Hindi 720p BluRay,Mirzapur 2018 Season 1 All Episodes Hindi download in hindi in hd for free,Mirzapur 2018 Season 1 All Episodes Hindi download for pc,Mirzapur 2018 Season 1 All Episodes download in hindi hd 1080p 720p 480p ,Mirzapur 2018 Season 1 All Episodes Hindi hindi download for mobile,Mirzapur 2018 Season 1 All Episodes download in hd for free,Mirzapur 2018 Season 1 All Episodes download in hindi,Mirzapur 2018 Season 1 Complete Download Hindi download 480p,download Mirzapur 2018 Season 1 episode 1 episode 2 episode 3 episode 4 episode 5 Download 300mb 400mb 100mb 1gb free,Mirzapur 2018 Season 1 All Episodes [01-09] Hindi 480p WEB-DL 1.2GB,Mirzapur Download All Episode 480p,Mirzapur Download Complete Season 01 480p,Mirzapur Download Complete Season 01 720p,

Mirzapur 2018 Season 1 All Episodes [01-09] Hindi 480p WEB-DL 1.2GB
Mirzapur 2018 Season 1 All Episodes [01-09] Hindi 480p WEB-DL 1.2GB

IMDB Ratings: 8.9/10
Show: Mirzapur 2018 Season 01 Hindi 480p Episodes
Genres: Crime, Thriller
Language: Hindi
Quality: 480p WEB-DL
Size: 1.2GB
Directed by: Karan Anshuman, Gurmmeet Singh
Stars: Abhishek Banerjee, Sheeba Chaddha, Pankaj Tripathi, Shaji Chaudhary

Storyline==}} Mirzapur 2018 Season 1 Hindi 480p Resolve story of Kaaleen Bhaiyya, the don of Mirzapur, whose hot-headed son Munna can’t tolerate the increasing stature of Guddu and Bablu in the local gang dynamics. (Mirzapur 2018 Season 1 All Episodes [01-09] Hindi 480p WEB-DL 1.2GB)

Mirzapur 2018 Season 1 All Episodes [01-09] Hindi 480p WEB-DL 1.2GB
Mirzapur 2018 Season 1 All Episodes [01-09] Hindi 480p WEB-DL 1.2GB
Mirzapur 2018 Season 1 All Episodes [01-09] Hindi 480p WEB-DL 1.2GB
Mirzapur 2018 Season 1 All Episodes [01-09] Hindi 480p WEB-DL 1.2GB

-=Watch Online Link=-

-=Download Links=-

Mirzapur 2018 Season 1 All Episodes [01-09] Hindi 480p WEB-DL 1.2GB
Mirzapur 2018 Season 1 All Episodes [01-09] Hindi 480p WEB-DL 1.2GB

Mirzapur 2018 S01E01 Hindi 480p WEB-DL

Download From Filerio
Download From TusFiles
Download From Desiupload
Download From Vidoza
Download From ClicknUpload

Mirzapur 2018 S01E02 Hindi 480p WEB-DL

Download From Filerio
Download From TusFiles
Download From Desiupload
Download From Vidoza
Download From ClicknUpload

Mirzapur 2018 S01E03 Hindi 480p WEB-DL

Download From Filerio
Download From TusFiles
Download From Desiupload
Download From Vidoza
Download From ClicknUpload

Mirzapur 2018 S01E04 Hindi 480p WEB-DL

Download From Filerio
Download From TusFiles
Download From Desiupload
Download From Vidoza
Download From ClicknUpload

Mirzapur 2018 S01E05 Hindi 480p WEB-DL

Download From Filerio
Download From TusFiles
Download From Desiupload
Download From Vidoza
Download From ClicknUpload

Mirzapur 2018 S01E06 Hindi 480p WEB-DL

Download From Filerio
Download From TusFiles
Download From Desiupload
Download From Vidoza
Download From ClicknUpload

Mirzapur 2018 S01E07 Hindi 480p WEB-DL

Download From Filerio
Download From TusFiles
Download From Desiupload
Download From Vidoza
Download From ClicknUpload

Mirzapur 2018 S01E08 Hindi 480p WEB-DL

Download From Filerio
Download From TusFiles
Download From Desiupload
Download From Vidoza
Download From ClicknUpload

Mirzapur 2018 S01E09 Hindi 480p WEB-DL

Download From Filerio
Download From TusFiles
Download From Desiupload
Download From Vidoza
Download From ClicknUpload

Thanks For Downloading

Mirzapur 2018 Season 1 All Episodes [01-09] Hindi 480p WEB-DL 1.2GB
Mirzapur 2018 Season 1 All Episodes [01-09] Hindi 480p WEB-DL 1.2GB

Visit Our Other Popular Post To Related This

Download The Flash S01 Complete Dual Audio Hindi 720p BluRay
WWE Monday Night Raw 24 September 2018 HDTV 800mb
WWE Smackdown Live 25 September 2018 HDTV 480p 300MB
Download WWE Hell In A Cell 2018 PPV WebRip 1.5 GB
Download WWE Hell In A Cell 2018 PPV WEBRip 480p x264 800MB
WWE Monday Night Raw 10 September 2018 HDTV 480p 700mb
WWE Monday Night Raw 17 September 2018 HDTV 480p 500mb
Download WWE Hell In A Cell 2018 PPV HDTV 720p – Moviesjug
Download Manmarziyaan 2018 Hindi pDVDRip 700MB- Moviesjug
Download Genius (2018) Hindi 720p HDRip x264 1.4GB ESubs
Download Genius (2018) Hindi 480p HDRip x264 400 MB ESubs
Download Robot 2.0 2018 Hindi Dubbed Teaser In HD 1080p 720p 480p 360p
Download Kanchana 3 (Anando Brahma) (2018) Hindi Dubbed 480p HDRip 400 MB
Click Here For Bing.com Searchengine
Click Here For Google.co.in
Click Here For Youtube.com

Video And Audio Full Details EP01

General
Mirzapur 2018 S01E01 Hindi [Moviesjug.net] 480p WEB-DL.mkv
Format : Matroska
Format version : Version 4 / Version 2
File size : 158 MiB
Duration : 51 min 49 s
Overall bit rate : 425 kb/s
Movie name : Downloladed From [Moviesjug.net]

Video
ID : 1
Format : AVC
Format/Info : Advanced Video Codec
Format profile : [email protected]
Format settings : CABAC / 4 Ref Frames
Format settings, CABAC : Yes
Format settings, RefFrames : 4 frames
Codec ID : V_MPEG4/ISO/AVC
Duration : 51 min 49 s
Bit rate : 399 kb/s
Width : 720 pixels
Height : 406 pixels
Display aspect ratio : 16:9
Frame rate mode : Constant
Frame rate : 23.976 (24000/1001) FPS
Color space : YUV
Chroma subsampling : 4:2:0
Bit depth : 8 bits
Scan type : Progressive
Bits/(Pixel*Frame) : 0.057
Stream size : 145 MiB (92%)
Title : Downloladed From [Moviesjug.net]
Writing library : x264 core
Language : Hindi
Default : Yes
Forced : No
Color range : Limited
Color primaries : BT.709
Transfer characteristics : BT.709
Matrix coefficients : BT.709

Audio
ID : 2
Format : AAC
Format/Info : Advanced Audio Codec
Format profile : HE-AAC / LC
Format settings : NBC
Codec ID : A_AAC-5
Duration : 51 min 49 s
Bit rate : 32.0 kb/s
Channel(s) : 2 channels
Channel positions : Front: L R
Sampling rate : 22.05 kHz / 11.025 kHz
Frame rate : 10.767 FPS (1024 SPF)
Compression mode : Lossy
Delay relative to video : -229 ms
Stream size : 11.9 MiB (8%)
Title : Downloladed From [Moviesjug.net]
Language : Hindi
Default : Yes
Forced : No

Mirzapur 2018 Season 1 All Episodes [01-09] Hindi 480p WEB-DL 1.2GB

Mirzapur 2018 Season 1 All Episodes [01-09] Hindi 480p WEB-DL 1.2GB

Mirzapur 2018 Season 1 All Episodes [01-09] Hindi 480p WEB-DL 1.2GB

Summary
Article Name
Mirzapur 2018 Season 1 All Episodes [01-09] Hindi 480p WEB-DL 1.2GB
Description
Mirzapur 2018 Season 1 All Episodes [01-09] Hindi 480p WEB-DL 1.2GB,Download Mirzapur 2018 Season 1 All 09 Episodes Hindi 720p BluRay,Mirzapur 2018 Season 1 All Episodes Hindi download in hindi in hd for free,Mirzapur 2018 Season 1 All Episodes Hindi download for pc,Mirzapur 2018 Season 1 All Episodes download in hindi hd 1080p 720p 480p ,Mirzapur 2018 Season 1 All Episodes Hindi hindi download for mobile,Mirzapur 2018 Season 1 All Episodes download in hd for free,
Author
Publisher Name
Moviesjug.net

Leave a Reply

Your email address will not be published. Required fields are marked *