Manto 2018 Hindi HDRip 720p AAC x264 700MB MoviesJug

DOWNLOAD EVERY SHOWS/SERIAL OF ‘ZEE5’, ‘HOTSTAR’, ‘VOOT’, ‘SONYLIV’, ONLY FROM THIS SITE AFTER 7 DECEMBER 2018

CLICK HERE FOR MORE INFORMATION  अधिक जानकारी के लिए यहां क्लिक करें।

 

Manto 2018 Hindi HDRip 720p AAC x264 700MB MoviesJug
Manto 2018 Hindi HDRip 720p AAC x264 700MB MoviesJug

Manto 2018 Hindi HDRip 720p AAC x264 700MB MoviesJug,Download Manto hdrip full movie bluray in hd for free,download Manto hdrip hd bluray print movie in hd 720p,Manto full hd print bluray  movie download in hd,download Manto movie in bluary 1080p bluary 720p 480p,Manto movie download full bluary hd in 300 mb,Manto movie download in bluary 700MB,Manto full movie download in hd bluary  for pc for free,Manto full movie download 720p bluary  openload,download full movie in hindi Manto 480p bluary ,Manto movie download openload bluary ,Manto full movie download bluary  ,Manto movie in 480p bluary  ,Manto free download full movie 700mb,Manto movie download 720p mb,Manto full movie download in 300mb,Manto full movie download 480p free,Manto full movie hd 480p download,Manto 2018 Hindi HDRip 720p AAC x264 700MB MoviesJug,
download full hindi movie Manto 720p 700mb,Manto full movie download free,Manto movie download 720p,new movie Manto Mantoo Mantu full hindi hd print download,Manto 2018 Hindi HDRip 720p AAC x264 700MB MoviesJug,

Manto 2018 Hindi HDRip 720p AAC x264 700MB MoviesJug
Manto 2018 Hindi HDRip 720p AAC x264 700MB MoviesJug

IMDB Rating: 7.8/10
Directed: Nandita Das
Released Date: 21 September 2018
Types: Biography ,Drama
Film Stars: Nawazuddin Siddiqui, Rasika Dugal, Tahir Raj Bhasin
Movie Quality: 720p HDRip
File Size: 784MB

 

Storyline==}} The film follows the most tumultuous four years in the life of Manto and that of the two countries he inhabits – India and Pakistan. In Bombay’s seedy-shiny film world, Manto and his stories are widely read and accepted. But as sectarian violence engulfs the nation, Manto makes the difficult choice of leaving his beloved Bombay. In Lahore, he finds himself bereft of friends and unable to find takers for his writings. His increasing alcoholism leads him into a downward spiral. Through all of this, he continues to write prolifically, without dilution. This is the tale of two emerging nations, two faltering cities, and one man who tries to make sense of it all. (Manto 2018 Hindi HDRip 720p AAC x264 700MB MoviesJug)

Manto 2018 Hindi HDRip 720p AAC x264 700MB MoviesJug
Manto 2018 Hindi HDRip 720p AAC x264 700MB MoviesJug
Manto 2018 Hindi HDRip 720p AAC x264 700MB MoviesJug
Manto 2018 Hindi HDRip 720p AAC x264 700MB MoviesJug
Manto 2018 Hindi HDRip 720p AAC x264 700MB MoviesJug

“Watch Online”

Watch from Vidoza

“Download Links”

Manto 2018 Hindi HDRip 720p AAC x264 700MB MoviesJug
Manto 2018 Hindi HDRip 720p AAC x264 700MB MoviesJug

Download From Filerio
Download From Tusfiles
Download From Vidoza
Download From DesiUpload

Thanks for Downloading……

Manto 2018 Hindi HDRip 720p AAC x264 700MB MoviesJug
Manto 2018 Hindi HDRip 720p AAC x264 700MB MoviesJug

Visit Our Other Popular Post To Related This

Haseena (2018) Hindi AAC 720p HDRip x264 900 MB
Download Karwaan (2018) Hindi 720p HDRip 850Mb
Ant Man And The Wasp (2018) Dual Audio [Hindi Cleaned Eng] HDRip 720p x264 ESubs 1Gb
Download Dashing Diljala 2018 Hindi Dubbed 720p HDRip 850Mb
Download Mulk (2018) Hindi 720p HDRip x264 AAC 1.2Gb
Download Dhadak (2018) Hindi 720p HDRip x264 950Mb
Jurassic World Fallen Kingdom (2018) Hindi ORG Dual Audio 720p BluRay 1GB
Download Sui Dhaaga Made in India (2018) Hindi PDVDRip x264 AAC 700MB
Power Unlimited 2 (Touch Chesi Chudu) 2018 Dual Audio 480p HDRip [Hindi Telugu]
18+ X X X Uncensored (2018) S01 All 5 Episodes Hindi 720p HDRip x264 800mb
Power Unlimited 2 (Touch Chesi Chudu) 2018 Dual Audio 720p HDRip [Hindi Telugu]
Download Akira (2016) 720p UNCUT HDRip x264 [Dual Audio] [Hindi Telugu]
Zhongkui Snow Girl and the Dark Crystal (2015) Dual Audio 720p HDRip [Hindi Chinese] 1Gb
Download Saheb Biwi Aur Gangster 3 2018 Hindi 350MB HDRip 480p
Download Saheb Biwi Aur Gangster 3 2018 Hindi 720p HDRip 1Gb
Download Batti Gul Meter Chalu 2018 Hindi PreDvd Rip 700MB
Download Laila Majnu 2018 Hindi DVDScr 700MB x264 Full Movie
Download Mitron 2018 Hindi DVDScr 700 MB Free Moviesjug
Download Manmarziyaan 2018 Hindi pDVDRip 700MB- Moviesjug
Download Genius (2018) Propper Audio Hindi 720p HDRip x264 1.4GB ESubs
Rampage (2018) Dual Audio ORG 720p BRRip Hindi English DD 5.1ch 1GB
Click Here For Bing.com Searchengine
Click Here For Google.co.in
Click Here For Youtube.com

 Video And Audio Full Details (Properties)

General
Manto 2018 Hindi HDRip 720p AAC x264 700MB.mkv

Format : Matroska
Format version : Version 4 / Version 2
File size : 784 MiB
Duration : 1 h 53 min
Overall bit rate : 962 kb/s
Movie name : Downloaded From [Moviesjug.net]

Video
ID : 1
Format : AVC
Format/Info : Advanced Video Codec
Format profile : [email protected]
Format settings : CABAC / 5 Ref Frames
Format settings, CABAC : Yes
Format settings, RefFrames : 5 frames
Codec ID : V_MPEG4/ISO/AVC
Duration : 1 h 53 min
Bit rate : 800 kb/s
Width : 1 280 pixels
Height : 720 pixels
Display aspect ratio : 16:9
Frame rate mode : Constant
Frame rate : 24.000 FPS
Color space : YUV
Chroma subsampling : 4:2:0
Bit depth : 8 bits
Scan type : Progressive
Bits/(Pixel*Frame) : 0.036
Stream size : 652 MiB (83%)
Title : Downloaded From [Moviesjug.net]
Writing library : x264 core 155
Language : Hindi
Default : Yes
Forced : No
Color range : Limited
Color primaries : BT.709
Transfer characteristics : BT.709
Matrix coefficients : BT.709

Audio
ID : 2
Format : AAC
Format/Info : Advanced Audio Codec
Format profile : LC
Codec ID : A_AAC-2
Duration : 1 h 53 min
Bit rate : 160 kb/s
Channel(s) : 2 channels
Channel positions : Front: L R
Sampling rate : 48.0 kHz
Frame rate : 46.875 FPS (1024 SPF)
Compression mode : Lossy
Delay relative to video : -41 ms
Stream size : 130 MiB (17%)
Title : Downloaded From [Moviesjug.net]
Language : Hindi
Default : Yes
Forced : No

Manto 2018 Hindi HDRip 720p AAC x264 700MB MoviesJug

Manto 2018 Hindi HDRip 720p AAC x264 700MB MoviesJug

Manto 2018 Hindi HDRip 720p AAC x264 700MB MoviesJug

Summary
Article Name
Manto 2018 Hindi HDRip 720p AAC x264 700MB MoviesJug
Description
Manto 2018 Hindi HDRip 720p AAC x264 700MB MoviesJug,Download Manto hdrip full movie bluray in hd for free,download Manto hdrip hd bluray print movie in hd 720p,Manto full hd print bluray movie download in hd,download Manto movie in bluary 1080p bluary 720p 480p,Manto movie download full bluary hd in 300 mb,Manto movie download in bluary 700MB,Manto full movie download in hd bluary for pc for free,Manto full movie download 720p bluary openload,
Author
Publisher Name
Moviesjug.net

Leave a Reply

Your email address will not be published. Required fields are marked *