Manikarnika 2019 Hindi Pdvdrip 720p 1GB Download/Watch Free

DOWNLOAD EVERY SHOWS/SERIAL OF ‘ZEE5’, ‘HOTSTAR’, ‘VOOT’, ‘SONYLIV’, ONLY FROM THIS SITE AFTER 7 DECEMBER 2018

CLICK HERE FOR MORE INFORMATION  अधिक जानकारी के लिए यहां क्लिक करें।

Manikarnika 2019 Hindi Pdvdrip 720p 1GB Download/Watch

Manikarnika 2019 Hindi Pdvdrip 720p 1GB Download/Watch,Manikarnika full movie download 720p hd in hindi,Manikarnika full movie in hindi 720p download,Manikarnika movie download 720p,Manikarnika hd movie free download 720p,Manikarnika full movie in hd download 720p hd ,Manikarnika hd movie free download 720p full hd,download movie Manikarnika in hd 720p,Manikarnika full movie download full hd 720p in hindi ,Manikarnika full movie download 720p,Manikarnika full movie download 720p filmywap,Manikarnika full movie download 720p hd free,(Manikarnika 2019 Hindi Pdvdrip 720p 1GB Download/Watch),Manikarnika 2018 full movie download 720p full hd in hindi,Manikarnika 2018 full movie download in hindi 720p hd mp4,Manikarnika 2018 full movie download utorrent 720p hd free download,Manikarnika 2018 (,Manikarnika 2019 Hindi Pdvdrip 720p 1GB Download/Watch),Kangana New movie Manikarnika Download Full Hd 720p ,kangana Ranaut new movie download in 720p hd,Manikarnika movie download 720p hd openload, Manikarnika latest movie download 720p hd,kangana Ranaut  latest movie download hd 720p

-= “MEDIA INFO” =-

Manikarnika 2019 Hindi Pdvdrip 720p 1GB Download/Watch
IMDB Ratings: 7.7/10 [Votes 2,947]

Directer : Radha Krishna Jagarlamudi
Writer:  Vijayendra Prasad (story and screenplay), Prasoon Joshi (dialogue)
Released Date:  25 January 2019 (USA)
Genres:  Action, Biography, Drama
Languages: Hindi
Film Stars:  Kangana Ranaut, Ankita Lokhande, Danny Denzongpa 
Movie Quality: PDVDRip 720p
File Size: 1GB

Storyline==}} Story of Rani Lakshmibai, one of the leading figures of the Indian Rebellion of 1857 and her resistance to the British Raj.(Manikarnika 2019 Hindi Pdvdrip 720p 1GB Download/Watch)

-= “SCREENSHOTS” =-

Manikarnika 2019 Hindi Pdvdrip 720p 1GB Download/Watch

-= “WATCH ONLINE AND DOWNLOAD LINKS” =-

The Kapil Sharma Show S02 Ep11 29 DEC 2018 720P/480P

-= “Watch Online Links” =-

(Use “Google Chrome” Browser For Better Online Watch Or Stream)

Watch From Vup.to 1GB
Watch From NXload.com 1GB
Watch From Flix555 1GB
Watch From Rapidvideo  1GB

-= “720P Download Links” =-

Download From Clicknupload
Download From Megaup.net
Download From ddl.to
Download From Uploadfiles

Thanks for Downloading……

Manikarnika 2019 Hindi Pdvdrip 720p 1GB Download/Watch

-= “Visit Our Other Popular Post To Related This” =-

Manikarnika 2019 Hindi Pdvdrip 480p 400mb Download/Watch Free
Manikarnika 2019 Hindi 700mb Pdvdrip Download And Watch Free
Incredibles 2 2018 Dual Audio [Hindi English] 480p HDRip 450Mb ESubs
Incredibles 2 2018 Dual Audio [Hindi English] 720p HDRip 1Gb ESubs
Download WWE Monday Night Raw 15 October 2018 HDTV 800mb
Download Comedy Circus 2018 Episode 10 14 October 2018 720p HDTV 350Mb
Downlolad Soorma (2018) Hindi HDRip 720p AAC 1.2 GB ESub Free
Download BHARAT: The Great Leader (Bharat Ane Nenu) 2018 Hindi Dubbed Trailer In HD 1080p 720p 480p 360p
Download Thadaka 2 Yuddham Sharanam (2018) 720p HDRip Hindi Dubbed 1GB
Download Fanney Khan (2018) Hindi Proper HDRip 480p 350MB
Fanney Khan (2018) Hindi Proper HDRip 720p AAC 1.2GB ESub
Haseena (2018) Hindi AAC 720p HDRip x264 900 MB
Download Karwaan (2018) Hindi 720p HDRip 850Mb
Download Mulk (2018) Hindi 720p HDRip x264 AAC 1.2Gb
Download Batti Gul Meter Chalu 2018 Hindi PreDvd Rip 700MB
Download Laila Majnu 2018 Hindi DVDScr 700MB x264 Full Movie
Click Here For Bing.com Searchengine
Click Here For Google.co.in
Click Here For Youtube.com

-= “Video And Audio Full Details (Properties)” =-

General
Manikarnika 2019 Hindi Pdvdrip 720p 1GB Download/Watch
Format : Matroska
Format version : Version 4 / Version 2
File size : 996 MiB
Duration : 2 h 15 min
Overall bit rate : 1 028 kb/s
Movie name : Manikarnika 2019 Hindi Pdvdrip 720p 1GB Download/Watch

Video
ID : 1
Format : AVC
Format/Info : Advanced Video Codec
Format profile : [email protected]
Format settings : CABAC / 4 Ref Frames
Format settings, CABAC : Yes
Format settings, RefFrames : 4 frames
Codec ID : V_MPEG4/ISO/AVC
Duration : 2 h 15 min
Bit rate : 897 kb/s
Width : 1 280 pixels
Height : 544 pixels
Display aspect ratio : 2.35:1
Frame rate mode : Constant
Frame rate : 29.970 (30000/1001) FPS
Color space : YUV
Chroma subsampling : 4:2:0
Bit depth : 8 bits
Scan type : Progressive
Bits/(Pixel*Frame) : 0.043
Stream size : 869 MiB (87%)
Title : Manikarnika 2019 Hindi Pdvdrip 720p 1GB Download/Watch
Language : Hindi
Default : Yes
Forced : No

Audio
ID : 2
Format : AAC
Format/Info : Advanced Audio Codec
Format profile : LC
Codec ID : A_AAC-2
Duration : 2 h 15 min
Bit rate : 128 kb/s
Channel(s) : 2 channels
Channel positions : Front: L R
Sampling rate : 48.0 kHz
Frame rate : 46.875 FPS (1024 SPF)
Compression mode : Lossy
Delay relative to video : -21 ms
Stream size : 125 MiB (13%)
Title : Manikarnika 2019 Hindi Pdvdrip 720p 1GB Download/Watch
Language : Hindi
Default : Yes
Forced : No

Manikarnika 2019 Hindi Pdvdrip 720p 1GB Download/Watch

Manikarnika 2019 Hindi Pdvdrip 720p 1GB Download/Watch

Manikarnika 2019 Hindi Pdvdrip 720p 1GB Download/Watch
Summary
Article Name
Manikarnika 2019 Hindi Pdvdrip 720p 1GB Download/Watch
Description
Manikarnika 2019 Hindi Pdvdrip 720p 1GB Download/Watch
Author
Publisher Name
Moviesjug.net

Leave a Reply

Your email address will not be published. Required fields are marked *