Manikarnika 2019 Hindi Pdvdrip 480p 400mb Download/Watch Free

DOWNLOAD EVERY SHOWS/SERIAL OF ‘ZEE5’, ‘HOTSTAR’, ‘VOOT’, ‘SONYLIV’, ONLY FROM THIS SITE AFTER 7 DECEMBER 2018

CLICK HERE FOR MORE INFORMATION  अधिक जानकारी के लिए यहां क्लिक करें।

Manikarnika 2019 Hindi Pdvdrip 480p 400mb Download/Watch

Manikarnika 2019 Hindi Pdvdrip 480p 400mb Download/Watch,Manikarnika full movie download 480p in hindi,Manikarnika full movie in hindi download 350mb 400mb 450mb 480p,Manikarnika movie download 500mb,Manikarnika hd movie free download 300mb,Manikarnika full movie in hd download 350mb 480p ,Manikarnika hd movie free download 480p 300mb 350mb,download movie Manikarnika in hd 480p 450mb 350mb,Manikarnika full movie download 480p 250mb in hindi ,Manikarnika full movie download 1080p,Manikarnika full movie download filmywap,Manikarnika full movie download 720p free,(Manikarnika 2019 Hindi Pdvdrip 480p 400mb Download/Watch),Manikarnika 2018 full movie download 720p in hindi,Manikarnika 2018 full movie download in hindi mp4,Manikarnika 2018 full movie download utorrent free download,Manikarnika 2018 ,Manikarnika 2019 Hindi Pdvdrip 480p 400mb Download/Watch),Kangana New movie Manikarnika Download Full Hd,kangana Ranaut new movie download in hd,Manikarnika movie download 720p openload, Manikarnika latest movie download hd,kangana Ranaut  latest movie download hd

-= “MEDIA INFO” =-

Manikarnika 2019 Hindi Pdvdrip 480p 400mb Download/Watch
IMDB Ratings: 7.7/10 [Votes 2,947]

Directer : Radha Krishna Jagarlamudi
Writer:  Vijayendra Prasad (story and screenplay), Prasoon Joshi (dialogue)
Released Date:  25 January 2019 (USA)
Genres:  Action, Biography, Drama
Languages: Hindi
Film Stars:  Kangana Ranaut, Ankita Lokhande, Danny Denzongpa 
Movie Quality: PDVDRip 480p
File Size: 400MB

Storyline==}} Story of Rani Lakshmibai, one of the leading figures of the Indian Rebellion of 1857 and her resistance to the British Raj.(Manikarnika 2019 Hindi Pdvdrip 480p 400mb Download/Watch)

-= “SCREENSHOTS” =-

Manikarnika 2019 Hindi Pdvdrip 480p 400mb Download/Watch

-= “WATCH ONLINE AND DOWNLOAD LINKS” =-

The Kapil Sharma Show S02 Ep11 29 DEC 2018 720P/480P

-= “Watch Online Links” =-

(Use “Google Chrome” Browser For Better Online Watch Or Stream)

Watch From Vup.to 400MB
Watch From NXload.com 400MB
Watch From Flix555 400MB
Watch From Rapidvideo 400MB

-= “480P Download Links” =-

Download From Megaup.net
Download From ddl.to
Download From Clicknupload
Download From Uploadfiles

Thanks for Downloading……

Manikarnika 2019 Hindi Pdvdrip 480p 400mb Download/Watch

-= “Visit Our Other Popular Post To Related This” =-

Incredibles 2 2018 Dual Audio [Hindi English] 480p HDRip 450Mb ESubs
Incredibles 2 2018 Dual Audio [Hindi English] 720p HDRip 1Gb ESubs
Download WWE Monday Night Raw 15 October 2018 HDTV 800mb
Download Comedy Circus 2018 Episode 10 14 October 2018 720p HDTV 350Mb
Downlolad Soorma (2018) Hindi HDRip 720p AAC 1.2 GB ESub Free
Download BHARAT: The Great Leader (Bharat Ane Nenu) 2018 Hindi Dubbed Trailer In HD 1080p 720p 480p 360p
Download Thadaka 2 Yuddham Sharanam (2018) 720p HDRip Hindi Dubbed 1GB
Download Fanney Khan (2018) Hindi Proper HDRip 480p 350MB
Fanney Khan (2018) Hindi Proper HDRip 720p AAC 1.2GB ESub
Haseena (2018) Hindi AAC 720p HDRip x264 900 MB
Download Karwaan (2018) Hindi 720p HDRip 850Mb
Download Mulk (2018) Hindi 720p HDRip x264 AAC 1.2Gb
Download Batti Gul Meter Chalu 2018 Hindi PreDvd Rip 700MB
Download Laila Majnu 2018 Hindi DVDScr 700MB x264 Full Movie
Click Here For Bing.com Searchengine
Click Here For Google.co.in
Click Here For Youtube.com

-= “Video And Audio Full Details (Properties)” =-

Manikarnika 2019 Hindi Pdvdrip 480p 400mb Download/Watch
Format : Matroska
Format version : Version 4 / Version 2
File size : 434 MiB
Duration : 2 h 15 min
Overall bit rate : 447 kb/s
Movie name : Manikarnika 2019 Hindi Pdvdrip 480p 400mb Download/Watch

Video
ID : 1
Format : AVC
Format/Info : Advanced Video Codec
Format profile : [email protected]
Format settings : CABAC / 4 Ref Frames
Format settings, CABAC : Yes
Format settings, RefFrames : 4 frames
Codec ID : V_MPEG4/ISO/AVC
Duration : 2 h 15 min
Bit rate : 315 kb/s
Width : 640 pixels
Height : 272 pixels
Display aspect ratio : 2.35:1
Frame rate mode : Constant
Frame rate : 29.970 (30000/1001) FPS
Color space : YUV
Chroma subsampling : 4:2:0
Bit depth : 8 bits
Scan type : Progressive
Bits/(Pixel*Frame) : 0.060
Stream size : 306 MiB (71%)
Title : Manikarnika 2019 Hindi Pdvdrip 480p 400mb Download/Watch
Language : Hindi
Default : Yes
Forced : No

Audio
ID : 2
Format : AAC
Format/Info : Advanced Audio Codec
Format profile : LC
Codec ID : A_AAC-2
Duration : 2 h 15 min
Bit rate : 129 kb/s
Channel(s) : 2 channels
Channel positions : Front: L R
Sampling rate : 48.0 kHz
Frame rate : 46.875 FPS (1024 SPF)
Compression mode : Lossy
Delay relative to video : -21 ms
Stream size : 125 MiB (29%)
Title : Manikarnika 2019 Hindi Pdvdrip 480p 400mb Download/Watch
Language : Hindi
Default : Yes
Forced : No

Manikarnika 2019 Hindi Pdvdrip 480p 400mb Download/Watch

Manikarnika 2019 Hindi Pdvdrip 480p 400mb Download/Watch

Manikarnika 2019 Hindi Pdvdrip 480p 400mb Download/Watch
Summary
Article Name
Manikarnika 2019 Hindi Pdvdrip 480p 400mb Download/Watch
Description
Manikarnika hd movie free download 300mb,Manikarnika full movie in hd download 350mb 480p ,Manikarnika hd movie free download 480p 300mb 350mb,download movie Manikarnika in hd 480p 450mb 350mb,Manikarnika full movie download 480p 250mb in hindi
Author
Publisher Name
Moviesjug.net

Leave a Reply

Your email address will not be published. Required fields are marked *