Manikarnika 2019 Hindi 700mb Pdvdrip Download And Watch Free

DOWNLOAD EVERY SHOWS/SERIAL OF ‘ZEE5’, ‘HOTSTAR’, ‘VOOT’, ‘SONYLIV’, ONLY FROM THIS SITE AFTER 7 DECEMBER 2018

CLICK HERE FOR MORE INFORMATION  अधिक जानकारी के लिए यहां क्लिक करें।

Manikarnika 2019 Hindi 700mb Pdvdrip Download And Watch,Manikarnika full movie download 720p in hindi,Manikarnika full movie in hindi download 480p,Manikarnika movie download 700mb,Manikarnika hd movie free download,Manikarnika full movie in hd download,Manikarnika hd movie free download,download movie Manikarnika in hd,Manikarnika full movie download 720p in hindi,Manikarnika full movie download 1080p,Manikarnika full movie download filmywap,Manikarnika full movie download 720p free,(Manikarnika 2019 Hindi 700mb Pdvdrip Download And Watch),Manikarnika 2018 full movie download 720p in hindi,Manikarnika 2018 full movie download in hindi mp4,Manikarnika 2018 full movie download utorrent free download,Manikarnika 2018 ,(Manikarnika 2019 Hindi 700mb Pdvdrip Download And Watch),Kangana New movie Manikarnika Download Full Hd,kangana Ranaut new movie download in hd,Manikarnika movie download 720p openload, Manikarnika latest movie download hd,kangana Ranaut  latest movie download hd

-= “MEDIA INFO” =-

Manikarnika 2019 Hindi 700mb Pdvdrip Download And Watch
IMDB Ratings: 7.7/10 [Votes 2,947]

Directer : Radha Krishna Jagarlamudi
Writer:  Vijayendra Prasad (story and screenplay), Prasoon Joshi (dialogue)
Released Date:  25 January 2019 (USA)
Genres:  Action, Biography, Drama
Languages: Hindi
Film Stars:  Kangana Ranaut, Ankita Lokhande, Danny Denzongpa 
Movie Quality: PDVDRip
File Size: 700MB

Storyline==}} Story of Rani Lakshmibai, one of the leading figures of the Indian Rebellion of 1857 and her resistance to the British Raj.(Manikarnika 2019 Hindi 700mb Pdvdrip Download And Watch)

-= “SCREENSHOTS” =-

Manikarnika 2019 Hindi 700mb Pdvdrip Download And Watch

-= “WATCH ONLINE AND DOWNLOAD LINKS” =-

The Kapil Sharma Show S02 Ep11 29 DEC 2018 720P/480P

-= “Watch Online Links” =-

(Use “Google Chrome” Browser For Better Online Watch Or Stream)

Watch From NXload.com 700MB
Watch From Rapidvideo 700MB
Watch From Vup.to 700MB
Watch From Filescdn.net 700MB
Watch From Flix555.com 700MB

-= “700 MB Download Links” =-

Download From Megaup.net
Download From Clicknupload.org
Download From ddl.to

Thanks for Downloading……

Manikarnika 2019 Hindi 700mb Pdvdrip Download And Watch

-= “Visit Our Other Popular Post To Related This” =-

Incredibles 2 2018 Dual Audio [Hindi English] 480p HDRip 450Mb ESubs
Incredibles 2 2018 Dual Audio [Hindi English] 720p HDRip 1Gb ESubs
Download WWE Monday Night Raw 15 October 2018 HDTV 800mb
Download Comedy Circus 2018 Episode 10 14 October 2018 720p HDTV 350Mb
Download Indian Idol Season 10 Episode 30 14th October 2018 720p HDTV 550Mb
Downlolad Sanju Full Movie (2018) Hindi WEB HD 480p 400 MB ESub
Downlolad Sanju (2018) Hindi HDTVRip 720p AAC 1.2 GB ESub Free
Download Jalebi 2018 Hindi Full Movie PDVDRip 700MB Free Moviesjug
Download Mitron 2018 Hindi DVDScr 700 MB Free Moviesjug
Download Fryday 2018 Hindi Full Movie PDVDRip 700MB Free Moviesjug
Download Pataakha 2018 Hindi Full Movie PDVDRip 700MB Free Moviesjug
Download Helicopter Eela 2018 Hindi Full Movie PDVDRip 700MB Free
Download FryDay (2018) Hindi 720p VER 2 AAC HQ DVD SCR x264 1.5 GB
Downlolad Soorma (2018) Hindi HDRip 720p AAC 1.2 GB ESub Free
Download BHARAT: The Great Leader (Bharat Ane Nenu) 2018 Hindi Dubbed Trailer In HD 1080p 720p 480p 360p
Download Thadaka 2 Yuddham Sharanam (2018) 720p HDRip Hindi Dubbed 1GB
Download Fanney Khan (2018) Hindi Proper HDRip 480p 350MB
Fanney Khan (2018) Hindi Proper HDRip 720p AAC 1.2GB ESub
Haseena (2018) Hindi AAC 720p HDRip x264 900 MB
Download Karwaan (2018) Hindi 720p HDRip 850Mb
Download Mulk (2018) Hindi 720p HDRip x264 AAC 1.2Gb
Download Dhadak (2018) Hindi 720p HDRip x264 950Mb
Download Sui Dhaaga Made in India (2018) Hindi PDVDRip x264 AAC 700MB
18+ X X X Uncensored (2018) S01 All 5 Episodes Hindi 720p HDRip x264 800mb
Download Saheb Biwi Aur Gangster 3 2018 Hindi 350MB HDRip 480p
Download Batti Gul Meter Chalu 2018 Hindi PreDvd Rip 700MB
Download Laila Majnu 2018 Hindi DVDScr 700MB x264 Full Movie
Click Here For Bing.com Searchengine
Click Here For Google.co.in
Click Here For Youtube.com

-= “Video And Audio Full Details (Properties)” =-

Manikarnika 2019 Hindi 700mb Pdvdrip Download And Watch
Format : Matroska
Format version : Version 4 / Version 2
File size : 724 MiB
Duration : 2 h 15 min
Overall bit rate : 747 kb/s
Manikarnika 2019 Hindi 700mb Pdvdrip Download And Watch

Video
ID : 1
Format : AVC
Format/Info : Advanced Video Codec
Format profile : [email protected]
Format settings : CABAC / 4 Ref Frames
Format settings, CABAC : Yes
Format settings, RefFrames : 4 frames
Codec ID : V_MPEG4/ISO/AVC
Duration : 2 h 15 min
Bit rate : 645 kb/s
Width : 720 pixels
Height : 306 pixels
Display aspect ratio : 2.35:1
Frame rate mode : Variable
Frame rate : 25.000 FPS
Color space : YUV
Chroma subsampling : 4:2:0
Bit depth : 8 bits
Scan type : Progressive
Bits/(Pixel*Frame) : 0.117
Stream size : 629 MiB (87%)
Title : Manikarnika 2019 Hindi 700mb Pdvdrip Download And Watch
Language : Hindi
Default : Yes
Forced : No
Color range : Limited
Color primaries : BT.601 NTSC
Transfer characteristics : BT.709
Matrix coefficients : BT.601

Audio
ID : 2
Format : MPEG Audio
Format version : Version 1
Format profile : Layer 3
Format settings : Joint stereo / MS Stereo
Codec ID : A_MPEG/L3
Codec ID/Hint : MP3
Duration : 2 h 15 min
Bit rate mode : Constant
Bit rate : 96.0 kb/s
Channel(s) : 2 channels
Sampling rate : 48.0 kHz
Frame rate : 41.667 FPS (1152 SPF)
Compression mode : Lossy
Delay relative to video : -56 ms
Stream size : 93.1 MiB (13%)
Title : Manikarnika 2019 Hindi 700mb Pdvdrip Download And Watch
Language : Hindi
Default : Yes
Forced : No

Manikarnika 2019 Hindi 700mb Pdvdrip Download And Watch

Manikarnika 2019 Hindi 700mb Pdvdrip Download And Watch

Manikarnika 2019 Hindi 700mb Pdvdrip Download And Watch
Summary
Article Name
Manikarnika 2019 Hindi 700mb Pdvdrip Download And Watch
Description
Manikarnika 2018 full movie download 720p in hindi,Manikarnika 2018 full movie download in hindi mp4,Manikarnika 2018 full movie download utorrent free download,Manikarnika 2018
Author
Publisher Name
Moviesjug.net

Leave a Reply

Your email address will not be published. Required fields are marked *