Kumkum Bhagya Ep 1250 11th Dec 2018 WEBRip 720p/480p 130MB/90MB

Kumkum Bhagya Ep 1250 11th Dec 2018 WEBRip 720p/480p 130MB/90MB

Kumkum Bhagya Ep 1250 11th Dec 2018 WEBRip 720p/480p 130MB/90MB,kukum bhagya today episode download in hd,kumkum bhaya serial latest hd episode download free,kumkum bhagya 11 dsec 2018 episode download in hd,zeetv serial kumkum bhagya 11 dec episode download full hd

Kumkum Bhagya Ep 1250 11th Dec 2018 WEBRip 720p/480p 130MB/90MB

Kumkum Bhagya Ep 1250 11th Dec 2018 WEBRip 720p/480p 130MB/90MB

Show Name : Kumkum Bhagya
Directed By : Sameer Kulkarni,Sharad Pandey

Creative Directors : Shaalu Nitin Dhall
Created By : Ekta Kapoor
Developed BY : Ekta Kapoor
Language : Hindi

Quality : 720p And 480p WebRip

Storyline==}} Pragya and Bulbul help their mother Sarla run the Kumkum Bhagya marriage hall. The series begins with a short-lived love triangle between Pragya – Suresh Srivastav – Bulbul, leading to the cancellation of Pragya and Suresh engagement. In parallel, Abhishek is in a relationship with the supermodel, Tanushree. Purab Khanna, is Abhishek’s best friend and music handler. Purab owns an advertising agency where he hires Bulbul. After some fights and misunderstandings, they confess their love for each other. But Abhi expects Purab to marry his sister, Aliya. However, in a bitter twist of fate, Aliya presumes Purab loves Pragya who has trapped him for money. Unfortunately Abhishek believes without listening to Purab. So Aliya, Abhishek and Tanu plots revenge. Abhi’s Dadi has met and liked Pragya so for revenge Abhi agrees to marry Pragya. (Kumkum Bhagya Ep 1250 11th Dec 2018 WEBRip 720p/480p 130MB/90MB)

Kumkum Bhagya Ep 1250 11th Dec 2018 WEBRip 720p/480p 130MB/90MBKumkum Bhagya Ep 1250 11th Dec 2018 WEBRip 720p/480p 130MB/90MB

Kumkum Bhagya Ep 1250 11th Dec 2018 WEBRip 720p/480p 130MB/90MB

-= Watch Online Links =-

Watch From Vidoza

-=Download Links=-

Kumkum Bhagya Ep 1250 11th Dec 2018 WEBRip 720p/480p 130MB/90MB

“720 Download Links”

Download From Filerio
Download From Clicknupload
Download From Vidoza

“480p Download Links”

Download From Filerio
Download From Clicknupload
Download From Vidoza

Thanks for Downloading…………

Kumkum Bhagya Ep 1250 11th Dec 2018 WEBRip 720p/480p 130MB/90MB

Visit Our Other Popular Post To Related This

Goosebumps 2 (2018) Dual Audio 720p HDTS x264 [Hindi+English] 950 MB
Download Indian Idol Season 10 Episode 33 27 October 2018 HDTV 720p 800Mb
Hotel Transylvania 3 Summer Vacation 2018 Dual Audio ORG [Hindi English] 720p BluRay 850 MB
Skyscraper 2018 Dual Audio ORG Hindi 720p BluRay [Hindi English] 900 MB ESubs
Mohalla Assi 2018 Hindi HD Full Movie Free Download PDVDRip 700 MB
Baazaar 2018 HD Full Movie Free Download PDVDRip 700 MB
The Journey Of Karma 2018 HD Full Movie Free Download PDVDRip 700 MB (Poonam Pandey)
Haseena (2018) Hindi AAC 720p HDRip x264 900 MB
Download Karwaan (2018) Hindi 720p HDRip 850Mb
Ant Man And The Wasp (2018) Dual Audio [Hindi Cleaned Eng] HDRip 720p x264 ESubs 1Gb
Download Dashing Diljala 2018 Hindi Dubbed 720p HDRip 850Mb
Download Mulk (2018) Hindi 720p HDRip x264 AAC 1.2Gb
Download Dhadak (2018) Hindi 720p HDRip x264 950Mb
Jurassic World Fallen Kingdom (2018) Hindi ORG Dual Audio 720p BluRay 1GB
Download Sui Dhaaga Made in India (2018) Hindi PDVDRip x264 AAC 700MB
Power Unlimited 2 (Touch Chesi Chudu) 2018 Dual Audio 480p HDRip [Hindi Telugu]
18+ X X X Uncensored (2018) S01 All 5 Episodes Hindi 720p HDRip x264 800mb
Power Unlimited 2 (Touch Chesi Chudu) 2018 Dual Audio 720p HDRip [Hindi Telugu]
Download Akira (2016) 720p UNCUT HDRip x264 [Dual Audio] [Hindi Telugu]
Zhongkui Snow Girl and the Dark Crystal (2015) Dual Audio 720p HDRip [Hindi Chinese] 1Gb
Download Saheb Biwi Aur Gangster 3 2018 Hindi 350MB HDRip 480p
Download Saheb Biwi Aur Gangster 3 2018 Hindi 720p HDRip 1Gb
Download Batti Gul Meter Chalu 2018 Hindi PreDvd Rip 700MB
Download Laila Majnu 2018 Hindi DVDScr 700MB x264 Full Movie
Download Mitron 2018 Hindi DVDScr 700 MB Free Moviesjug
Download Manmarziyaan 2018 Hindi pDVDRip 700MB- Moviesjug
Download Genius (2018) Propper Audio Hindi 720p HDRip x264 1.4GB ESubs
Rampage (2018) Dual Audio ORG 720p BRRip Hindi English DD 5.1ch 1GB
Click Here For Bing.com Searchengine
Click Here For Google.co.in
Click Here For Youtube.com

Video And Audio Full Details (Properties) 720p print

General
Kumkum Bhagya Ep 1250 11th Dec 2018 WEBRip 720p/480p 130MB/90MB
Format : Matroska
Format version : Version 4 / Version 2
File size : 135 MiB
Duration : 21 min 14 s
Overall bit rate : 891 kb/s
Movie name : Kumkum Bhagya Ep 1250 11th Dec 2018 WEBRip 720p/480p 130MB/90MB

Video
ID : 1
Format : AVC
Format/Info : Advanced Video Codec
Format profile : [email protected]
Format settings : CABAC / 4 Ref Frames
Format settings, CABAC : Yes
Format settings, RefFrames : 4 frames
Codec ID : V_MPEG4/ISO/AVC
Duration : 21 min 14 s
Bit rate : 800 kb/s
Width : 1 280 pixels
Original width : 1 024 pixels
Height : 720 pixels
Original height : 576 pixels
Display aspect ratio : 2.000
Original display aspect ratio : 16:9
Frame rate mode : Constant
Frame rate : 25.000 FPS
Color space : YUV
Chroma subsampling : 4:2:0
Bit depth : 8 bits
Scan type : Progressive
Bits/(Pixel*Frame) : 0.035
Stream size : 120 MiB (89%)
Title : Kumkum Bhagya Ep 1250 11th Dec 2018 WEBRip 720p/480p 130MB/90MB
Language : Hindi
Default : Yes
Forced : No

Audio
ID : 2
Format : AAC
Format/Info : Advanced Audio Codec
Format profile : LC
Codec ID : A_AAC-2
Duration : 21 min 14 s
Bit rate : 96.0 kb/s
Channel(s) : 2 channels
Channel positions : Front: L R
Sampling rate : 48.0 kHz
Frame rate : 46.875 FPS (1024 SPF)
Compression mode : Lossy
Stream size : 14.6 MiB (11%)
Title : Kumkum Bhagya Ep 1250 11th Dec 2018 WEBRip 720p/480p 130MB/90MB
Language : Hindi
Default : Yes
Forced : No

Kumkum Bhagya Ep 1250 11th Dec 2018 WEBRip 720p/480p 130MB/90MB

Kumkum Bhagya Ep 1250 11th Dec 2018 WEBRip 720p/480p 130MB/90MB

Kumkum Bhagya Ep 1250 11th Dec 2018 WEBRip 720p/480p 130MB/90MB
Summary
Article Name
Kumkum Bhagya Ep 1250 11th Dec 2018 WEBRip 720p/480p 130MB/90MB
Description
kumkum bhagya 11 dsec 2018 episode download in hd
Author
Publisher Name
Moviesjug.net

Leave a Reply

Your email address will not be published. Required fields are marked *