Jurassic World Fallen Kingdom (2018) Hindi ORG Dual Audio 720p BluRay 1GB

Jurassic World Fallen Kingdom (2018) Hindi ORG Dual Audio 720p BluRay 1GB
Jurassic World Fallen Kingdom 2018 Hindi Bluray,Posters,Images,Screenshots,pics,pictures

Jurassic World Fallen Kingdom (2018) Hindi ORG Dual Audio 720p BluRay 1GB,Download Jurassic World Fallen Kingdom (2018) in Hindi in HD, Jurassic World 2018 Hindi ORG full movie download HD in Hindi, Jurassic World Fallen Kingdom 2018 Hindi ORG movie dual audio download HD,Jurassic World Fallen Kingdom 2018 Hindi ORG film download dual audio in HD,Jurassic World Fallen Kingdom  movie 720p download,Jurassic world latest movie download in full hd,Jurassic World Fallen Kingdom (2018) Hindi ORG, Jurassic world (2018) Dual Audio ORG,jurasic world 2018 download full movie,jurassic world fallen kingdom download hin original audio,

Jurassic World Fallen Kingdom (2018) Hindi ORG Dual Audio 720p BluRay 1GB
Jurassic World Fallen Kingdom 2018 Hindi Bluray,Posters,Images,Screenshots,pics,pictures

IMDB Ratings: 6.3/10
Directed: J.A. Bayona
Released Date: 22 June 2018
Genres: Action ,Adventure ,Sci-Fi
Languages: Hindi ,English
Film Stars: Chris Pratt, Bryce Dallas Howard, Rafe Spall
Movie Quality: 720p BRRip
File Size: 1Gb

Storyline==}}Three years after the Jurassic World theme park was closed down, Owen and Claire return to Isla Nublar to save the dinosaurs when they learn that a once dormant volcano on the island is active and is threatening to extinguish all life there. Along the way, Owen sets out to find Blue, his lead raptor, and discovers a conspiracy that could disrupt the natural order of the entire planet. Life has found a way, again. Written by Jake Logsdon.

Jurassic World Fallen Kingdom (2018) Hindi ORG Dual Audio 720p BluRay 1GB
Jurassic World Fallen Kingdom 2018 Hindi Bluray,Posters,Images,Screenshots,pics,pictures
Jurassic World Fallen Kingdom (2018) Hindi ORG Dual Audio 720p BluRay 1GB
Jurassic World Fallen Kingdom 2018 Hindi Bluray,Posters,Images,Screenshots,pics,picture

Jurassic World Fallen Kingdom (2018) Hindi ORG Dual Audio 720p BluRay 1GB

Download Links

Download From Openload
Download From Clicknupload
Download From Desiupload
Download From Uploadfiles

Visit Our Other Popular Post To Related This

Download Sui Dhaaga Made in India (2018) Hindi PDVDRip x264 AAC 700MB
Power Unlimited 2 (Touch Chesi Chudu) 2018 Dual Audio 480p HDRip [Hindi Telugu]
18+ X X X Uncensored (2018) S01 All 5 Episodes Hindi 720p HDRip x264 800mb
Power Unlimited 2 (Touch Chesi Chudu) 2018 Dual Audio 720p HDRip [Hindi Telugu]
Download Akira (2016) 720p UNCUT HDRip x264 [Dual Audio] [Hindi Telugu]
Zhongkui Snow Girl and the Dark Crystal (2015) Dual Audio 720p HDRip [Hindi Chinese] 1Gb
Download Saheb Biwi Aur Gangster 3 2018 Hindi 350MB HDRip 480p
Download Saheb Biwi Aur Gangster 3 2018 Hindi 720p HDRip 1Gb
Download Batti Gul Meter Chalu 2018 Hindi PreDvd Rip 700MB
Download Laila Majnu 2018 Hindi DVDScr 700MB x264 Full Movie
Download Mitron 2018 Hindi DVDScr 700 MB Free Moviesjug
Download Manmarziyaan 2018 Hindi pDVDRip 700MB- Moviesjug
Download Genius (2018) Propper Audio Hindi 720p HDRip x264 1.4GB ESubs
Rampage (2018) Dual Audio ORG 720p BRRip Hindi English DD 5.1ch 1GB
Download Ant Man and the Wasp 2018 Dual Audio Hindi English 480p HDTC 300mb
Click Here For Bing.com Searchengine
Click Here For Google.co.in
Click Here For Youtube.com

Video And Audio Full Details (Properties)

General
Jurassic World Fallen Kingdom (2018) Hindi ORG Dual Audio 720p BluRay 1GB.mkv
Format : Matroska
Format version : Version 4 / Version 2
File size : 1.02 GiB
Duration : 2 h 8 min
Overall bit rate : 1 138 kb/s
Movie name : Jurassic World Fallen Kingdom (2018) Hindi ORG Dual Audio 720p BluRay 1GB

Video
ID : 1
Format : AVC
Format/Info : Advanced Video Codec
Format profile : [email protected]
Format settings : CABAC / 4 Ref Frames
Format settings, CABAC : Yes
Format settings, RefFrames : 4 frames
Codec ID : V_MPEG4/ISO/AVC
Duration : 2 h 8 min
Bit rate : 761 kb/s
Width : 1 280 pixels
Height : 544 pixels
Display aspect ratio : 2.35:1
Frame rate mode : Constant
Frame rate : 23.976 (24000/1001) FPS
Color space : YUV
Chroma subsampling : 4:2:0
Bit depth : 8 bits
Scan type : Progressive
Bits/(Pixel*Frame) : 0.046
Stream size : 695 MiB (67%)
Title : Jurassic World Fallen Kingdom (2018) Hindi ORG Dual Audio 720p BluRay 1GB
Language : English
Default : Yes
Forced : No
Color range : Limited
Color primaries : BT.709
Transfer characteristics : BT.709
Matrix coefficients : BT.709

Audio #1
ID : 2
Format : AAC
Format/Info : Advanced Audio Codec
Format profile : LC
Codec ID : A_AAC-2
Duration : 2 h 8 min
Bit rate : 125 kb/s
Channel(s) : 2 channels
Channel positions : Front: L R
Sampling rate : 44.1 kHz
Frame rate : 43.066 FPS (1024 SPF)
Compression mode : Lossy
Stream size : 115 MiB (11%)
Title : Jurassic World Fallen Kingdom (2018) Hindi ORG Dual Audio 720p BluRay 1GB
Language : Hindi
Default : Yes
Forced : No

Audio #2
ID : 3
Format : AAC
Format/Info : Advanced Audio Codec
Format profile : LC
Codec ID : A_AAC-2
Duration : 2 h 8 min
Bit rate : 253 kb/s
Channel(s) : 6 channels
Channel positions : Front: L C R, Side: L R, LFE
Sampling rate : 48.0 kHz
Frame rate : 46.875 FPS (1024 SPF)
Compression mode : Lossy
Delay relative to video : 9 ms
Stream size : 232 MiB (22%)
Title : Jurassic World Fallen Kingdom (2018) Hindi ORG Dual Audio 720p BluRay 1GB
Language : English
Default : No
Forced : No

Text
ID : 4
Format : UTF-8
Codec ID : S_TEXT/UTF8
Codec ID/Info : UTF-8 Plain Text
Duration : 1 h 55 min
Bit rate : 43 b/s
Count of elements : 1379
Stream size : 37.2 KiB (0%)
Title : Jurassic World Fallen Kingdom (2018) Hindi ORG Dual Audio 720p BluRay 1GB
Language : English
Default : Yes
Forced : No

Jurassic World Fallen Kingdom (2018) Hindi ORG Dual Audio 720p BluRay 1GB

Jurassic World Fallen Kingdom (2018) Hindi ORG Dual Audio 720p BluRay 1GB

Jurassic World Fallen Kingdom (2018) Hindi ORG Dual Audio 720p BluRay 1GB

Leave a Reply

Your email address will not be published. Required fields are marked *