Incredibles 2 2018 Dual Audio [Hindi English] 480p HDRip 450Mb ESubs

Incredibles 2 2018 Dual Audio [Hindi English] 480p HDRip 450Mb ESubs
Incredibles 2 (2018) Movie Poster,Images,Pics,Screenshots,Pictures

Incredibles 2 2018 Dual Audio [Hindi English] 480p HDRip 450Mb ESubs,Download Incredibles 2 2018 bluray 720p,Download Incredibles 2 2018 in full hd in hindi, Incredibles 2  download in dual audio ,Incredibles 2 2018 download in dula audio hindi english,download Incredibles 2 2018 dual audio brrip, download Incredibles 2 2018 dual audio brrip 480p,Download Latest Animation Movie,Incredibles 2 2018 Hindi dubbed,Download Latest Animation Movie in hindi Hd 480p,Download Incredibles 2 480p hd,Download Incredibles 2 Hd 300mb,Download Incredibles 2 500Mb 720p Hd in Hindi

Incredibles 2 2018 Dual Audio [Hindi English] 480p HDRip 450Mb ESubs
Incredibles 2 (2018) Movie Poster,Images,Pics,Screenshots,Pictures

IMDB Ratings: 8.0/10
Genres: Animation, Action, Adventure
Language: Hindi Cam+ English
Quality: 720p HDRip
Size: 482Mb
Director: Brad Bird
Writer: Brad Bird
Stars: Craig T. Nelson, Holly Hunter, Sarah Vowel

Storyline==}} While the Parr family has accepted its collective calling as superheroes, the fact remains that their special heroism is still illegal. After they are arrested after unsuccessfully trying to stop the Underminer, their future seems bleak. However, the wealthy Deavor siblings of Devtech offer new hope with a bold project to rehabilitate the public image and legal status of Supers, with Elastigirl being assigned on point to be the shining example. Now having agreed for now to stay at home to care of the kids, Mr. Incredible finds domestic life a daunting challenge, especially with baby Jack-Jack’s newly emerged powers making him almost impossible to manage. However, Elastigirl soon has her own concerns dealing with the menace of a new supervillain, Screenslaver, who is wreaking havoc with his mind control abilities. Now, Elastigirl must solve the mystery of this enemy, who has malevolent designs on the world with the Parr family and friends key targets of this evil.

Incredibles 2 2018 Dual Audio [Hindi English] 480p HDRip 450Mb ESubs

Incredibles 2 2018 Dual Audio [Hindi English] 480p HDRip 450Mb ESubs
Incredibles 2 (2018) Movie Poster,Images,Pics,Screenshots,Pictures
Incredibles 2 2018 Dual Audio [Hindi English] 480p HDRip 450Mb ESubs
Incredibles 2 (2018) Movie Poster,Images,Pics,Screenshots,Pictures

Incredibles 2 2018 Dual Audio [Hindi English] 480p HDRip 450Mb ESubs

-=Download Links=-

Incredibles 2 2018 Dual Audio [Hindi English] 480p HDRip 450Mb ESubs
Incredibles 2 (2018) Movie Poster,Images,Pics,Screenshots,Pictures

Download From Openload
Download From Clicknupload
Download from Desiupload
Download From Uploadfiles

Thanks for Downloading…………

Incredibles 2 2018 Dual Audio [Hindi English] 480p HDRip 450Mb ESubs
Incredibles 2 (2018) Movie Poster,Images,Pics,Screenshots,Pictures

Visit Our Other Popular Post To Related This

The Journey Of Karma 2018 HD Full Movie Free Download PDVDRip 700 MB (Poonam Pandey)
Downlolad Sanju (2018) Hindi HDTVRip 480p x264 400 MB ESub Free
Download Jalebi 2018 Hindi Full Movie PDVDRip 700MB Free Moviesjug
Download Mitron 2018 Hindi DVDScr 700 MB Free Moviesjug
Download Fryday 2018 Hindi Full Movie PDVDRip 700MB Free Moviesjug
Download Pataakha 2018 Hindi Full Movie PDVDRip 700MB Free Moviesjug
Download Helicopter Eela 2018 Hindi Full Movie PDVDRip 700MB Free
Download FryDay (2018) Hindi 720p VER 2 AAC HQ DVD SCR x264 1.5 GB
Downlolad Soorma (2018) Hindi HDRip 720p AAC 1.2 GB ESub Free
Download L7 (2018) Hindi Dubbed 720p HDRip x264 900MB
Download Game of Thrones S02 Complete Dual Audio Hindi BluRay 720p
Download The Flash S01 Complete Dual Audio Hindi 720p BluRay
Download WWE Smackdown Live 09 October 2018 HDTV 480p 300MB
Download WWE Monday Night Raw 08 October 2018 HDTV 800mb
Haseena (2018) Hindi AAC 720p HDRip x264 900 MB
Download Karwaan (2018) Hindi 720p HDRip 850Mb
Ant Man And The Wasp (2018) Dual Audio [Hindi Cleaned Eng] HDRip 720p x264 ESubs 1Gb
Download Dashing Diljala 2018 Hindi Dubbed 720p HDRip 850Mb
Download Mulk (2018) Hindi 720p HDRip x264 AAC 1.2Gb
Download Dhadak (2018) Hindi 720p HDRip x264 950Mb
Jurassic World Fallen Kingdom (2018) Hindi ORG Dual Audio 720p BluRay 1GB
Download Sui Dhaaga Made in India (2018) Hindi PDVDRip x264 AAC 700MB
Download Akira (2016) 720p UNCUT HDRip x264 [Dual Audio] [Hindi Telugu]
Zhongkui Snow Girl and the Dark Crystal (2015) Dual Audio 720p HDRip [Hindi Chinese] 1Gb
Download Saheb Biwi Aur Gangster 3 2018 Hindi 350MB HDRip 480p
Download Saheb Biwi Aur Gangster 3 2018 Hindi 720p HDRip 1Gb
Download Batti Gul Meter Chalu 2018 Hindi PreDvd Rip 700MB
Download Laila Majnu 2018 Hindi DVDScr 700MB x264 Full Movie
Download Mitron 2018 Hindi DVDScr 700 MB Free Moviesjug
Download WWE Hell In A Cell 2018 PPV HDTV 720p – Moviesjug
Download Manmarziyaan 2018 Hindi pDVDRip 700MB- Moviesjug
Download Genius (2018) Propper Audio Hindi 720p HDRip x264 1.4GB ESubs
Rampage (2018) Dual Audio ORG 720p BRRip Hindi English DD 5.1ch 1GB
Download Ant Man and the Wasp 2018 Dual Audio Hindi English 480p HDTC 300mb
Click Here For Bing.com Searchengine
Click Here For Google.co.in
Click Here For Youtube.com

Video And Audio Full Details (Properties)

General
Incredibles 2 2018 Dual Audio [Hindi English] 480p HDRip 450Mb ESubs
Format : Matroska
Format version : Version 4 / Version 2
File size : 482 MiB
Duration : 1 h 57 min
Overall bit rate : 572 kb/s
Movie name : Downloaded From [Moviesjug.net]

Video
ID : 4
Format : AVC
Format/Info : Advanced Video Codec
Format profile : [email protected]
Format settings : CABAC / 5 Ref Frames
Format settings, CABAC : Yes
Format settings, RefFrames : 5 frames
Codec ID : V_MPEG4/ISO/AVC
Duration : 1 h 57 min
Bit rate : 378 kb/s
Width : 640 pixels
Height : 268 pixels
Display aspect ratio : 2.40:1
Frame rate mode : Constant
Frame rate : 23.976 (24000/1001) FPS
Color space : YUV
Chroma subsampling : 4:2:0
Bit depth : 8 bits
Scan type : Progressive
Bits/(Pixel*Frame) : 0.092
Stream size : 318 MiB (66%)
Title : Incredibles 2 2018 Dual Audio [Hindi English] 480p HDRip 450Mb ESubs
Writing library : x264 core 155 r2901 7d0ff22
Language : English
Default : Yes
Forced : No
Color range : Limited
Color primaries : BT.709
Transfer characteristics : BT.709
Matrix coefficients : BT.709

Audio #1
ID : 1
Format : MPEG Audio
Format version : Version 1
Format profile : Layer 3
Format settings : Joint stereo / MS Stereo
Codec ID : A_MPEG/L3
Codec ID/Hint : MP3
Duration : 1 h 57 min
Bit rate mode : Constant
Bit rate : 128 kb/s
Channel(s) : 2 channels
Sampling rate : 48.0 kHz
Frame rate : 41.667 FPS (1152 SPF)
Compression mode : Lossy
Stream size : 108 MiB (22%)
Title : Incredibles 2 2018 Dual Audio [Hindi English] 480p HDRip 450Mb ESubs
Writing library : LAME3.99r
Encoding settings : -m j -V 4 -q 3 -lowpass 17 -b 128
Language : Hindi
Default : No
Forced : No

Audio #2
ID : 2
Format : AAC
Format/Info : Advanced Audio Codec
Format profile : HE-AAC / LC
Format settings : Explicit
Codec ID : A_AAC-2
Duration : 1 h 57 min
Bit rate : 64.0 kb/s
Channel(s) : 2 channels
Channel positions : Front: L R
Sampling rate : 48.0 kHz / 24.0 kHz
Frame rate : 23.438 FPS (1024 SPF)
Compression mode : Lossy
Delay relative to video : 31 ms
Stream size : 53.9 MiB (11%)
Title : Incredibles 2 2018 Dual Audio [Hindi English] 480p HDRip 450Mb ESubs
Language : English
Default : Yes
Forced : No

Text
ID : 3
Format : UTF-8
Codec ID : S_TEXT/UTF8
Codec ID/Info : UTF-8 Plain Text
Duration : 1 h 55 min
Bit rate : 71 b/s
Count of elements : 2024
Stream size : 60.3 KiB (0%)
Title : Incredibles 2 2018 Dual Audio [Hindi English] 480p HDRip 450Mb ESubs
Language : English
Default : Yes
Forced : No

Incredibles 2 2018 Dual Audio [Hindi English] 480p HDRip 450Mb ESubs

Incredibles 2 2018 Dual Audio [Hindi English] 480p HDRip 450Mb ESubs

Incredibles 2 2018 Dual Audio [Hindi English] 480p HDRip 450Mb ESubs

Leave a Reply

Your email address will not be published. Required fields are marked *