Hotel Transylvania 3 Summer Vacation 2018 Dual Audio ORG [Hindi English] 720p BluRay 850 MB

Hotel Transylvania 3 Summer Vacation 2018 Dual Audio ORG 720p BluRay 850 MB
Hotel Transylvania 3 Summer Vacation 2018 Dual Audio ORG 720p BluRay 850 MB

Hotel Transylvania 3 Summer Vacation 2018 Dual Audio ORG 720p BluRay 850 MB,

Hotel Transylvania 3 Summer Vacation 2018 Dual Audio ORG 720p BluRay 850 MB,Hotel Transylvania 3 Summer Vacation 2018 movie download 720p,Hotel Transylvania 3 Summer Vacation 2018 hd movie free download,Hotel Transylvania 3 Summer Vacation 2018 full movie in hd download,Hotel Transylvania 3 Summer Vacation 2018 hd movie free download,download movie Hotel Transylvania 3 Summer Vacation 2018 in hd,Hotel Transylvania 3 Summer Vacation 2018 full movie download 1080p,Hotel Transylvania 3 Summer Vacation 2018 full movie download filmywap,Hotel Transylvania 3 Summer Vacation 2018 full movie download 720p free,(Hotel Transylvania 3 Summer Vacation 2018 Dual Audio ORG 720p BluRay 850 MB)Hotel Transylvania 3 Summer Vacation 2018 full movie download 720p in hindi,Hotel Transylvania 3 Summer Vacation 2018 full movie download in hindi mp4Hotel Transylvania 3 Summer Vacation 2018 full movie download utorrent free download,Hotel Transylvania 3 Summer Vacation 2018 Dual Audio ORG 720p BluRay 850 MB

Hotel Transylvania 3 Summer Vacation 2018 full movie dailymotion download,Hotel Transylvania 3 Summer Vacation 2018 full movie download 720p filmywap hd download,Hotel Transylvania 3 Summer Vacation 2018 movie download 720p,Hotel Transylvania 3 Summer Vacation 2018 movie hd download ,Hotel Transylvania 3 Summer Vacation 2018 full movie in hd download,download Hotel Transylvania 3 Summer Vacation 2018 movie hd,Hotel Transylvania 3 Summer Vacation 2018 hd movie free download,full movie Hotel Transylvania 3 Summer Vacation 2018 download,Hotel Transylvania 3 Summer Vacation 2018 full movie full hd,download movie Hotel Transylvania 3 Summer Vacation 2018 in hd,Hotel Transylvania 3 Summer Vacation 2018 2018 full movie hindi download,Hotel Transylvania 3 Summer Vacation 2018 full movie 720p download,Hotel Transylvania 3 Summer Vacation 2018 movie download hindi,Hotel Transylvania 3 Summer Vacation 2018 full movie download,Hotel Transylvania 3 Summer Vacation 2018 free download,Hotel Transylvania 3 Summer Vacation 2018 movie free download hd,Hotel Transylvania 3 Summer Vacation 2018 hindi full movie download,Hotel Transylvania 3 Summer Vacation 2018 full hd movie 2016,Hotel Transylvania 3 Summer Vacation 2018 film hd download,Hotel Transylvania 3 Summer Vacation 2018 full hd,Hotel Transylvania 3 Summer Vacation 2018 movie hindi download,

Hotel Transylvania 3 Summer Vacation 2018 Dual Audio ORG 720p BluRay 850 MB
Hotel Transylvania 3 Summer Vacation 2018 Dual Audio ORG 720p BluRay 850 MB

IMDB Ratings: 6.4/10
Genres: Animation, Comedy, Family
Release Date : 13th July 2018
Language: ORG Audios [Hindi + English]
Quality: 720p BRRip
Size: 858mb
Director: Genndy Tartakovsky
Writers: Michael McCullers, Genndy Tartakovsky
Stars: Adam Sandler, Andy Samberg, Selena Gomez

Storyline==}} Mavis surprises Dracula with a family voyage on a luxury Monster Cruise Ship so he can take a vacation from providing everyone else’s vacation at the hotel. The rest of Drac’s Pack cannot resist going along. But once they leave port, romance arises when Dracula meets the mysterious ship Captain, Ericka. Now it’s Mavis’ turn to play the overprotective parent, keeping her dad and Ericka apart. Little do they know that his “too good to be true” love interest is actually a descendant of Abraham Van Helsing, ancient nemesis to Dracula and all other monsters.Hotel Transylvania 3 Summer Vacation 2018 Dual Audio ORG 720p BluRay 850 MB

Hotel Transylvania 3 Summer Vacation 2018 Dual Audio ORG 720p BluRay 850 MB
Hotel Transylvania 3 Summer Vacation 2018 Dual Audio ORG 720p BluRay 850 MB
Hotel Transylvania 3 Summer Vacation 2018 Dual Audio ORG 720p BluRay 850 MB
Hotel Transylvania 3 Summer Vacation 2018 Dual Audio ORG 720p BluRay 850 MB

Hotel Transylvania 3 Summer Vacation 2018 Dual Audio ORG 720p BluRay 850 MB

Download Links

Hotel Transylvania 3 Summer Vacation 2018 Dual Audio ORG 720p BluRay 850 MB
Hotel Transylvania 3 Summer Vacation 2018 Dual Audio ORG 720p BluRay 850 MB

Download From Openload
Download From Clicknupload
Download from Desiupload

Thanks for Downloading…………

Hotel Transylvania 3 Summer Vacation 2018 Dual Audio ORG 720p BluRay 850 MB
Hotel Transylvania 3 Summer Vacation 2018 Dual Audio ORG 720p BluRay 850 MB

Visit Our Other Popular Post To Related This

Haseena (2018) Hindi AAC 720p HDRip x264 900 MB
Download Karwaan (2018) Hindi 720p HDRip 850Mb
Ant Man And The Wasp (2018) Dual Audio [Hindi Cleaned Eng] HDRip 720p x264 ESubs 1Gb
Download Dashing Diljala 2018 Hindi Dubbed 720p HDRip 850Mb
Download Mulk (2018) Hindi 720p HDRip x264 AAC 1.2Gb
Download Dhadak (2018) Hindi 720p HDRip x264 950Mb
Jurassic World Fallen Kingdom (2018) Hindi ORG Dual Audio 720p BluRay 1GB
Download Sui Dhaaga Made in India (2018) Hindi PDVDRip x264 AAC 700MB
Power Unlimited 2 (Touch Chesi Chudu) 2018 Dual Audio 480p HDRip [Hindi Telugu]
18+ X X X Uncensored (2018) S01 All 5 Episodes Hindi 720p HDRip x264 800mb
Power Unlimited 2 (Touch Chesi Chudu) 2018 Dual Audio 720p HDRip [Hindi Telugu]
Download Akira (2016) 720p UNCUT HDRip x264 [Dual Audio] [Hindi Telugu]
Zhongkui Snow Girl and the Dark Crystal (2015) Dual Audio 720p HDRip [Hindi Chinese] 1Gb
Download Saheb Biwi Aur Gangster 3 2018 Hindi 350MB HDRip 480p
Download Saheb Biwi Aur Gangster 3 2018 Hindi 720p HDRip 1Gb
Download Batti Gul Meter Chalu 2018 Hindi PreDvd Rip 700MB
Download Laila Majnu 2018 Hindi DVDScr 700MB x264 Full Movie
Download Mitron 2018 Hindi DVDScr 700 MB Free Moviesjug
Download Manmarziyaan 2018 Hindi pDVDRip 700MB- Moviesjug
Download Genius (2018) Propper Audio Hindi 720p HDRip x264 1.4GB ESubs
Rampage (2018) Dual Audio ORG 720p BRRip Hindi English DD 5.1ch 1GB
Click Here For Bing.com Searchengine
Click Here For Google.co.in
Click Here For Youtube.com

Video And Audio Full Details (Properties)

General
Hotel Transylvania 3 Summer Vacation 2018 Dual Audio ORG 720p BluRay 850 MBBluRay x264.mkv
Format : Matroska
Format version : Version 4 / Version 2
File size : 884 MiB
Duration : 1 h 37 min
Overall bit rate mode : Variable
Overall bit rate : 1 269 kb/s
Movie name : Hotel Transylvania 3 Summer Vacation 2018 Dual Audio ORG 720p BluRay 850 MB

Video
Hotel Transylvania 3 Summer Vacation 2018 Dual Audio ORG 720p BluRay 850 MB

ID : 1
Format : AVC
Format/Info : Advanced Video Codec
Format profile : [email protected]
Format settings : CABAC / 4 Ref Frames
Format settings, CABAC : Yes
Format settings, RefFrames : 4 frames
Codec ID : V_MPEG4/ISO/AVC
Duration : 1 h 37 min
Bit rate : 1 050 kb/s
Width : 1 280 pixels
Height : 682 pixels
Display aspect ratio : 1.85:1
Original display aspect ratio : 1.85:1
Frame rate mode : Constant
Frame rate : 23.976 (24000/1001) FPS
Color space : YUV
Chroma subsampling : 4:2:0
Bit depth : 8 bits
Scan type : Progressive
Bits/(Pixel*Frame) : 0.050
Stream size : 731 MiB (83%)
Title : Hotel Transylvania 3 Summer Vacation 2018 Dual Audio ORG 720p BluRay 850 MB
Writing library : x264 core 152
aq=1:1.00
Language : English
Default : Yes
Forced : No

Audio #1
Hotel Transylvania 3 Summer Vacation 2018 Dual Audio ORG 720p BluRay 850 MB
ID : 2
Format : MPEG Audio
Format version : Version 1
Format profile : Layer 3
Format settings : Joint stereo / MS Stereo
Codec ID : A_MPEG/L3
Codec ID/Hint : MP3
Duration : 1 h 37 min
Bit rate mode : Variable
Bit rate : 84.3 kb/s
Nominal bit rate : 96.0 kb/s
Channel(s) : 2 channels
Sampling rate : 44.1 kHz
Frame rate : 38.281 FPS (1152 SPF)
Compression mode : Lossy
Delay relative to video : -43 ms
Stream size : 58.7 MiB (7%)
Title : Hotel Transylvania 3 Summer Vacation 2018 Dual Audio ORG 720p BluRay 850 MB
Writing library : LAME3.99r
Encoding settings : -m j -V 4 -q 3 -lowpass 15.1 –abr 96
Language : Hindi
Default : No
Forced : No

Audio #2
ID : 4
Format : AAC
Format/Info : Advanced Audio Codec
Format profile : LC
Codec ID : A_AAC-2
Duration : 1 h 37 min
Bit rate : 132 kb/s
Channel(s) : 2 channels
Channel positions : Front: L R
Sampling rate : 48.0 kHz
Frame rate : 46.875 FPS (1024 SPF)
Compression mode : Lossy
Delay relative to video : -43 ms
Stream size : 92.1 MiB (10%)
Title : Hotel Transylvania 3 Summer Vacation 2018 Dual Audio ORG 720p BluRay 850 MB
Language : English
Default : No
Forced : No

Text
ID : 3
Format : UTF-8
Codec ID : S_TEXT/UTF8
Codec ID/Info : UTF-8 Plain Text
Duration : 1 h 30 min
Bit rate : 63 b/s
Count of elements : 1623
Stream size : 41.9 KiB (0%)
Title : Hotel Transylvania 3 Summer Vacation 2018 Dual Audio ORG 720p BluRay 850 MB
Language : English
Default : Yes
Forced : No

Hotel Transylvania 3 Summer Vacation 2018 Dual Audio ORG 720p BluRay 850 MB

Hotel Transylvania 3 Summer Vacation 2018 Dual Audio ORG 720p BluRay 850 MB

Hotel Transylvania 3 Summer Vacation 2018 Dual Audio ORG 720p BluRay 850 MB

Summary
Article Name
Hotel Transylvania 3 Summer Vacation 2018 Dual Audio ORG 720p BluRay 850 MB
Description
Hotel Transylvania 3 Summer Vacation 2018 Dual Audio ORG 720p BluRay 850 MB,Hotel Transylvania 3 Summer Vacation 2018 movie download 720p,Hotel Transylvania 3 Summer Vacation 2018 hd movie free download,Hotel Transylvania 3 Summer Vacation 2018 full movie in hd download,Hotel Transylvania 3 Summer Vacation 2018 hd movie free download,download movie Hotel Transylvania 3 Summer Vacation 2018 in hd,Hotel Transylvania 3 Summer Vacation 2018 full movie download 1080p
Author
Publisher Name
Moviesjug.net

Leave a Reply

Your email address will not be published. Required fields are marked *