Haseena (2018) Hindi AAC 720p HDRip x264 900 MB

Haseena (2018) Hindi AAC 720p HDRip x264 900 MB
Haseena (2018) Hindi Poster,Images,Picture,Pics,Screenshots

Haseena (2018) Hindi AAC 720p HDRip x264 900 MB,Download Haseena(2018) Hindi full movie in hd for free,download Haseena (2018) Hindi movie in hd 720p,Haseena (2018) Hindi full movie download in hd print,download Haseena (2018) Hindi,Download Haseena (2018) Hindi 1Gb, Haseena (2018) Hindi AAC 720p HDRip x264 900 MB,Haseena (2018) Hindi movie in 1080p 720p 480p,Haseena (2018) Hindi movie download full hd in 300 mb,Haseena (2018) Hindi movie download in 300MB,Haseena (2018) Hindi full movie download in hd for pc for free,Haseena(2018) Hindi Movie In hd, Download Haseena(2018) Hindi Movie in Full hd,Haseena full movie download in hd for pc for free,Haseena full movie download 720p openload,download full movie in hindi Haseena 480p,Haseena movie download openload,Haseenafull movie download,Haseena movie in 480p,Haseena free download full movie 700mb,Haseena movie download 720p mb,Haseena full movie download in 300mb,Haseena full movie download 480p free,Haseenafull movie hd 480p download

IMDB Ratings: 5.8/10
Directed: Vicky Ranawat
Released Date:  5 January 2018 (India)
Genres: Action ,Comedy
Languages: Hindi ,
Film Stars: Mohit Arora, Inayat Sharma, Arpit Soni
Movie Quality: 720p HDRip
File Size: 900MB

Storyline==}} Three boys swooned by the beauty of Haseena, who they meet in Goa, find themselves in trouble when she loots them and runs away.(Haseena (2018) Hindi AAC 720p HDRip x264 900 MB)

Haseena (2018) Hindi AAC 720p HDRip x264 900 MB

Haseena (2018) Hindi AAC 720p HDRip x264 900 MB
Haseena (2018) Hindi www.Moviesjug.net 720p HDRip AAC x264 900 MB

Download Links

Download From Openload
Download From Clicknupload
Download from Desiupload
Download From Uploadfiles

Thanks for Downloading …………

Visit Our Other Popular Post To Related This

 

Download Karwaan (2018) Hindi 720p HDRip 850Mb
Ant Man And The Wasp (2018) Dual Audio [Hindi Cleaned Eng] HDRip 720p x264 ESubs 1Gb
Download Dashing Diljala 2018 Hindi Dubbed 720p HDRip 850Mb
Download Mulk (2018) Hindi 720p HDRip x264 AAC 1.2Gb
Download Dhadak (2018) Hindi 720p HDRip x264 950Mb
Jurassic World Fallen Kingdom (2018) Hindi ORG Dual Audio 720p BluRay 1GB
Download Sui Dhaaga Made in India (2018) Hindi PDVDRip x264 AAC 700MB
Power Unlimited 2 (Touch Chesi Chudu) 2018 Dual Audio 480p HDRip [Hindi Telugu]
18+ X X X Uncensored (2018) S01 All 5 Episodes Hindi 720p HDRip x264 800mb
Power Unlimited 2 (Touch Chesi Chudu) 2018 Dual Audio 720p HDRip [Hindi Telugu]
Download Akira (2016) 720p UNCUT HDRip x264 [Dual Audio] [Hindi Telugu]
Zhongkui Snow Girl and the Dark Crystal (2015) Dual Audio 720p HDRip [Hindi Chinese] 1Gb
Download Saheb Biwi Aur Gangster 3 2018 Hindi 350MB HDRip 480p
Download Saheb Biwi Aur Gangster 3 2018 Hindi 720p HDRip 1Gb
Download Batti Gul Meter Chalu 2018 Hindi PreDvd Rip 700MB
Download Laila Majnu 2018 Hindi DVDScr 700MB x264 Full Movie
Download Mitron 2018 Hindi DVDScr 700 MB Free Moviesjug
Download Manmarziyaan 2018 Hindi pDVDRip 700MB- Moviesjug
Download Genius (2018) Propper Audio Hindi 720p HDRip x264 1.4GB ESubs
Rampage (2018) Dual Audio ORG 720p BRRip Hindi English DD 5.1ch 1GB
Click Here For Bing.com Searchengine
Click Here For Google.co.in
Click Here For Youtube.com

Video And Audio Full Details (Properties)

Haseena (2018) Hindi AAC 720p HDRip x264 900 MB
Format : Matroska
Format version : Version 4 / Version 2
File size : 926 MiB new
Duration : 2 h 7 min
Overall bit rate mode : Variable
Overall bit rate : 1 019 kb/s
Movie name : Haseena (2018) Hindi AAC 720p HDRip x264 900 MB

Video
ID : 1
Format : AVC
Format/Info : Advanced Video Codec
Format profile : [email protected]
Format settings : CABAC / 4 Ref Frames
Format settings, CABAC : Yes
Format settings, RefFrames : 4 frames
Codec ID : V_MPEG4/ISO/AVC movie
Duration : 2 h 7 min
Bit rate : 917 kb/s
Width : 1 280 pixels
Height : 542 pixels
Display aspect ratio : 2.35:1
Frame rate mode : Constant
Stream size : 836 MiB (90%)
Title : Haseena (2018) Hindi AAC 720p HDRip x264 900 MB
Language : Hindi
Default : Yes
Forced : No

Audio
ID : 2
Format : MPEG Audio
Format version : Version 1
Format profile : Layer 3
Format settings : Joint stereo / MS Stereo
Codec ID : A_MPEG/L3
Codec ID/Hint : MP3 vip
Duration : 2 h 7 min
Bit rate mode : Variable
Bit rate : 96.0 kb/s
Channel(s) : 2 channels
Sampling rate : 44.1 kHz
Frame rate : 38.281 FPS (1152 SPF)
Compression mode : Lossy
Stream size : 87.5 MiB (9%)
Title : Haseena (2018) Hindi AAC 720p HDRip x264 900 MB
Writing library : LAME3.99r
Encoding settings : -m j -V 4 -q 3 -lowpass 15.1 –abr 96
Language : Hindi
Default : Yes
Forced : Yes

Haseena (2018) Hindi AAC 720p HDRip x264 900 MB

Haseena (2018) Hindi AAC 720p HDRip x264 900 MB

Leave a Reply

Your email address will not be published. Required fields are marked *