Goosebumps 2 (2018) Dual Audio 720p HDTS x264 [Hindi+English] 950 MB

 Goosebumps 2 (2018) Dual Audio 720p HDTS x264 [Hindi+English] 950 MB
Goosebumps 2 (2018) Dual Audio 720p HDTS x264 [Hindi+English] 950 MB

Goosebumps 2 (2018) Dual Audio 720p HDTS x264 [Hindi+English] 950 MB,Goosebumps 2 latest movie download hindi dubbed clear audio hd,Goosebumps 2 2018 full movie hindi dubbed hd free download,Goosebumps 2 2018 hindi movie download 720p,Goosebumps 2 2018 hindi hd movie free download,Goosebumps 2 2018 hindi full movie in hd download,Goosebumps 2 2018 hindi hd movie free download,download movie Goosebumps 2 2018 hindi,Goosebumps 2 2018 hindi full movie download 1080p,Goosebumps 2 2018 hindi full movie download filmywap,Goosebumps 2 2018 hindi full movie download 720p free,(Goosebumps 2 (2018) Dual Audio 720p HDTS x264 [Hindi+English] 950 MB)Goosebumps 2 2018 hindi full movie download 720p in hindi,Goosebumps 2 2018 hindi full movie download in hindi mp4,Goosebumps 2 2018 hindi full movie download utorrent free download,Goosebumps 2 (2018) Dual Audio 720p HDTS x264 [Hindi+English] 950 MB

Goosebumps 2 2018 hindi full movie dailymotion download,Goosebumps 2 2018 hindi full movie download 720p filmywap hd download,Goosebumps 2 2018 hindi movie download 720p,Goosebumps 2 2018 hindi 2018 movie hd download ,Goosebumps 2 2018 hindi full movie in hd download,download Goosebumps 2 2018 hindi movie hd,Goosebumps 2 2018 hindi hd movie free download,full movie Goosebumps 2 2018 hindi download,Goosebumps 2 2018 hindi full movie full hd,download movie Goosebumps 2 2018 hindi in hd,Goosebumps 2 2018 hindi full movie hindi download,Goosebumps 2 2018 hindi full movie 720p download,Goosebumps 2 2018 hindi movie download hindi,Goosebumps 2 2018 hindi 2016 full movie download,Skyscraper 2018 hindi free download,Skyscraper 2018 hindi movie free download hd,Goosebumps 2 2018 hindi hindi full movie download,Goosebumps 2 2018 hindi full hd movie 2016,Goosebumps 2 2018 hindi film hd download,Goosebumps 2 2018 hindi full hd,Goosebumps 2 2018 hindi movie hindi download,

 

 Goosebumps 2 (2018) Dual Audio 720p HDTS x264 [Hindi+English] 950 MB
Goosebumps 2 (2018) Dual Audio 720p HDTS x264 [Hindi+English] 950 MB

IMDB Rating: 6.1/10 [2,060]
Directed: Ari Sandel
Writer: Rob Lieber 

Released Date: 12 October 2018 (USA)
Genres: Adventure | Comedy | Family | Fantasy | Horror
Film Stars: Wendi McLendon-Covey, Madison Iseman, Jeremy Ray Taylor
Movie Quality: 720p HDTS
File Size: 850MB.

Storyline==}}  Two young friends find a magic book that brings a ventriloquist’s dummy to life..(Goosebumps 2 (2018) Dual Audio 720p HDTS x264 [Hindi+English] 950 MB)

 Goosebumps 2 (2018) Dual Audio 720p HDTS x264 [Hindi+English] 950 MB
Goosebumps 2 (2018) Dual Audio 720p HDTS x264 [Hindi+English] 950 MB
 Goosebumps 2 (2018) Dual Audio 720p HDTS x264 [Hindi+English] 950 MB
Goosebumps 2 (2018) Dual Audio 720p HDTS x264 [Hindi+English] 950 MB

Goosebumps 2 (2018) Dual Audio 720p HDTS x264 [Hindi+English] 950 MB

Download Links

 Goosebumps 2 (2018) Dual Audio 720p HDTS x264 [Hindi+English] 950 MB
Goosebumps 2 (2018) Dual Audio 720p HDTS x264 [Hindi+English] 950 MB

Download From Openload
Download From Clicknupload
Download from Desiupload

Thanks for Downloading…………

 Goosebumps 2 (2018) Dual Audio 720p HDTS x264 [Hindi+English] 950 MB
Goosebumps 2 (2018) Dual Audio 720p HDTS x264 [Hindi+English] 950 MB

Visit Our Other Popular Post To Related This

Hotel Transylvania 3 Summer Vacation 2018 Dual Audio ORG [Hindi English] 720p BluRay 850 MB
Skyscraper 2018 Dual Audio ORG Hindi 720p BluRay [Hindi English] 900 MB ESubs
Mohalla Assi 2018 Hindi HD Full Movie Free Download PDVDRip 700 MB
Baazaar 2018 HD Full Movie Free Download PDVDRip 700 MB
The Journey Of Karma 2018 HD Full Movie Free Download PDVDRip 700 MB (Poonam Pandey)
Haseena (2018) Hindi AAC 720p HDRip x264 900 MB
Download Karwaan (2018) Hindi 720p HDRip 850Mb
Ant Man And The Wasp (2018) Dual Audio [Hindi Cleaned Eng] HDRip 720p x264 ESubs 1Gb
Download Dashing Diljala 2018 Hindi Dubbed 720p HDRip 850Mb
Download Mulk (2018) Hindi 720p HDRip x264 AAC 1.2Gb
Download Dhadak (2018) Hindi 720p HDRip x264 950Mb
Jurassic World Fallen Kingdom (2018) Hindi ORG Dual Audio 720p BluRay 1GB
Download Sui Dhaaga Made in India (2018) Hindi PDVDRip x264 AAC 700MB
Power Unlimited 2 (Touch Chesi Chudu) 2018 Dual Audio 480p HDRip [Hindi Telugu]
18+ X X X Uncensored (2018) S01 All 5 Episodes Hindi 720p HDRip x264 800mb
Power Unlimited 2 (Touch Chesi Chudu) 2018 Dual Audio 720p HDRip [Hindi Telugu]
Download Akira (2016) 720p UNCUT HDRip x264 [Dual Audio] [Hindi Telugu]
Zhongkui Snow Girl and the Dark Crystal (2015) Dual Audio 720p HDRip [Hindi Chinese] 1Gb
Download Saheb Biwi Aur Gangster 3 2018 Hindi 350MB HDRip 480p
Download Saheb Biwi Aur Gangster 3 2018 Hindi 720p HDRip 1Gb
Download Batti Gul Meter Chalu 2018 Hindi PreDvd Rip 700MB
Download Laila Majnu 2018 Hindi DVDScr 700MB x264 Full Movie
Download Mitron 2018 Hindi DVDScr 700 MB Free Moviesjug
Download Manmarziyaan 2018 Hindi pDVDRip 700MB- Moviesjug
Download Genius (2018) Propper Audio Hindi 720p HDRip x264 1.4GB ESubs
Rampage (2018) Dual Audio ORG 720p BRRip Hindi English DD 5.1ch 1GB
Click Here For Bing.com Searchengine
Click Here For Google.co.in
Click Here For Youtube.com

Video And Audio Full Details (Properties)

General

Goosebumps 2 (2018) Dual Audio 720p HDTS x264 [Hindi+English] 950 MB
 Goosebumps 2 (2018) Dual Audio 720p HDTS x264 [Hindi+English] 950 MBHindi].mkv
Format : Matroska
Format version : Version 4 / Version 2
File size : 951 MiB
Duration : 1 h 22 min
Overall bit rate : 1 609 kb/s
Movie name : Goosebumps 2 (2018) Dual Audio 720p HDTS x264 [Hindi+English] 950 MB

Video

Goosebumps 2 (2018) Dual Audio 720p HDTS x264 [Hindi+English] 950 MB
ID : 1
Format : AVC
Format/Info : Advanced Video Codec
Format profile : [email protected]
Format settings : CABAC / 4 Ref Frames
Format settings, CABAC : Yes
Format settings, RefFrames : 4 frames
Codec ID : V_MPEG4/ISO/AVC
Duration : 1 h 22 min
Bit rate : 1 382 kb/s
Width : 1 088 pixels
Height : 504 pixels
Display aspect ratio : 2.2:1
Frame rate mode : Constant
Frame rate : 29.970 (30000/1001) FPS
Color space : YUV
Chroma subsampling : 4:2:0
Bit depth : 8 bits
Scan type : Progressive
Bits/(Pixel*Frame) : 0.084
Stream size : 817 MiB (86%)
Title : Goosebumps 2 (2018) Dual Audio 720p HDTS x264 [Hindi+English] 950 MB
Language : English
Default : Yes
Forced : No

Audio #1
ID : 2
Format : MPEG Audio
Format version : Version 1
Format profile : Layer 3
Format settings : Joint stereo / MS Stereo
Codec ID : A_MPEG/L3
Codec ID/Hint : MP3
Duration : 1 h 22 min
Bit rate mode : Constant
Bit rate : 128 kb/s
Channel(s) : 2 channels
Sampling rate : 48.0 kHz
Frame rate : 41.667 FPS (1152 SPF)
Compression mode : Lossy
Stream size : 75.7 MiB (8%)
Title : Goosebumps 2 (2018) Dual Audio 720p HDTS x264 [Hindi+English] 950 MB
Writing library : LAME3.99r
Encoding settings : -m j -V 4 -q 3 -lowpass 17 -b 128
Language : Hindi
Default : No
Forced : No

Audio #2
ID : 3
Format : MPEG Audio
Format version : Version 1
Format profile : Layer 3
Format settings : Joint stereo / MS Stereo
Codec ID : A_MPEG/L3
Codec ID/Hint : MP3
Duration : 1 h 22 min
Bit rate mode : Constant
Bit rate : 96.0 kb/s
Channel(s) : 2 channels
Sampling rate : 48.0 kHz
Frame rate : 41.667 FPS (1152 SPF)
Compression mode : Lossy
Stream size : 56.8 MiB (6%)
Title : Goosebumps 2 (2018) Dual Audio 720p HDTS x264 [Hindi+English] 950 MB
Language : English
Default : No
Forced : No

Goosebumps 2 (2018) Dual Audio 720p HDTS x264 [Hindi+English] 950 MB

Goosebumps 2 (2018) Dual Audio 720p HDTS x264 [Hindi+English] 950 MB

Goosebumps 2 (2018) Dual Audio 720p HDTS x264 [Hindi+English] 950 MB

 

Summary
Article Name
Goosebumps 2 (2018) Dual Audio 720p HDTS x264 [Hindi+English] 950 MB
Description
Goosebumps 2 (2018) Dual Audio 720p HDTS x264 [Hindi+English] 950 MB,Goosebumps 2 latest movie download hindi dubbed clear audio hd,Goosebumps 2 2018 full movie hindi dubbed hd free download,Goosebumps 2 2018 hindi movie download 720p,Goosebumps 2 2018 hindi hd movie free download,Goosebumps 2 2018 hindi full movie in hd download,Goosebumps 2 2018 hindi hd movie free download
Author
Publisher Name
Moviesjug.net

Leave a Reply

Your email address will not be published. Required fields are marked *