Fanney Khan (2018) Hindi Proper HDRip 720p AAC 1.2GB ESub

Fanney Khan (2018) Hindi Proper HDRip 720p AAC 1.2GB ESub
Fanney Khan (2018) Movie Posters,Images,Pictures,Pics

Fanney Khan (2018) Hindi Proper HDRip 720p AAC 1.2GB ESub,download Fanney Khan (2018) movie in hd 720p,Fanney Khan (2018) full movie download in hd print,Fanney Khan full movie download,download Fanney Khaan Fanne khan movie in 1080p 720p 480p,Fanney Khan (2018) hindi movie download full hd in 300 mb,Fanney Khan (2018) movie download in 700MB,Fanney Khan (2018) full movie download in hd for pc for free,Fanney Khan (2018) full movie download 720p openload,download full movie in hindi Fanney Khan (2018) 480p,Fanney Khan (2018) movie download openload,Fanney Khan (2018) full movie download,Fanney Khan (2018) movie in 480p,Fanney Khan (2018) free download full movie 700mb,Fanney Khan (2018) movie download 720p mb,Fanney Khan 2018 full movie download in 300mb,Fanney Khan 2018 full movie download 480p free,Fanney Khan 2018 full movie hd 480p download,download full hindi movie Fanney Khan 720p 700mb,Fanney Khan 2018 full movie download free,Fanney Khan 2018 movie download 720p,new movie Fanney Khan 2018 full hindi hd print download,Fanney Khan 2018 full movie download,

Fanney Khan (2018) Hindi Proper HDRip 720p AAC 1.2GB ESub
Fanney Khan (2018) Movie Posters,Images,Pictures,Pics,Screenshots,

IMDB Rating: 4.4/10
Directed: Atul Manjrekar
Released Date: 3 August 2018
Types: Comedy ,Drama ,Music
Film Stars: Aishwarya Rai Bachchan, Anil Kapoor, Rajkummar Rao
Movie Quality: 720p HDRip
File Size: 1.2GB

Storyline==}} Fanney Khan is a struggling singer who wants to make his daughter a big name in music world.

Fanney Khan (2018) Hindi Proper HDRip 720p AAC 1.2GB ESub
Fanney Khan (2018) Movie Posters,Images,Pictures,Pics,Screenshots
Fanney Khan (2018) Hindi Proper HDRip 720p AAC 1.2GB ESub
Fanney Khan (2018) Movie Posters,Images,Pictures,Pics,Screenshots

Fanney Khan (2018) Hindi Proper HDRip 720p AAC 1.2GB ESub

-=”Download Links”=-

Fanney Khan (2018) Hindi Proper HDRip 720p AAC 1.2GB ESub
Fanney Khan (2018) Movie Posters,Images,Pictures,Pics,Screenshots

Download From Openload
Download From Clicknupload
Download From Desiupload
Download From Uploadfiles

Thanks for Downloading…………

Fanney Khan (2018) Hindi Proper HDRip 720p AAC 1.2GB ESub
Fanney Khan (2018) Movie Posters,Images,Pictures,Pics,Screenshots

Visit Our Other Popular Post To Related This

Download L7 (2018) Hindi Dubbed 720p HDRip x264 900MB
Download Game of Thrones S02 Complete Dual Audio Hindi BluRay 720p
Download The Flash S01 Complete Dual Audio Hindi 720p BluRay
Download WWE Smackdown Live 09 October 2018 HDTV 480p 300MB
Download WWE Monday Night Raw 08 October 2018 HDTV 800mb
Haseena (2018) Hindi AAC 720p HDRip x264 900 MB
Download Karwaan (2018) Hindi 720p HDRip 850Mb
Ant Man And The Wasp (2018) Dual Audio [Hindi Cleaned Eng] HDRip 720p x264 ESubs 1Gb
Download Dashing Diljala 2018 Hindi Dubbed 720p HDRip 850Mb
Download Mulk (2018) Hindi 720p HDRip x264 AAC 1.2Gb
Download Dhadak (2018) Hindi 720p HDRip x264 950Mb
Jurassic World Fallen Kingdom (2018) Hindi ORG Dual Audio 720p BluRay 1GB
Download Sui Dhaaga Made in India (2018) Hindi PDVDRip x264 AAC 700MB
Power Unlimited 2 (Touch Chesi Chudu) 2018 Dual Audio 480p HDRip [Hindi Telugu]
18+ X X X Uncensored (2018) S01 All 5 Episodes Hindi 720p HDRip x264 800mb
Power Unlimited 2 (Touch Chesi Chudu) 2018 Dual Audio 720p HDRip [Hindi Telugu]
Download Akira (2016) 720p UNCUT HDRip x264 [Dual Audio] [Hindi Telugu]
Zhongkui Snow Girl and the Dark Crystal (2015) Dual Audio 720p HDRip [Hindi Chinese] 1Gb
Download Saheb Biwi Aur Gangster 3 2018 Hindi 350MB HDRip 480p
Download Saheb Biwi Aur Gangster 3 2018 Hindi 720p HDRip 1Gb
Download Batti Gul Meter Chalu 2018 Hindi PreDvd Rip 700MB
Download Laila Majnu 2018 Hindi DVDScr 700MB x264 Full Movie
Download Mitron 2018 Hindi DVDScr 700 MB Free Moviesjug
Download Manmarziyaan 2018 Hindi pDVDRip 700MB- Moviesjug
Download Genius (2018) Propper Audio Hindi 720p HDRip x264 1.4GB ESubs
Rampage (2018) Dual Audio ORG 720p BRRip Hindi English DD 5.1ch 1GB
Click Here For Bing.com Searchengine
Click Here For Google.co.in
Click Here For Youtube.com

Video And Audio Full Details (Properties)

General
Fanney Khan (2018) Hindi Proper HDRip 720p AAC 1.2GB ESub
Format : Matroska
Format version : Version 4 / Version 2
File size : 1.26 GiB
Duration : 2 h 9 min
Overall bit rate : 1 399 kb/s
Movie name : Fanney Khan (2018) Hindi Proper HDRip 720p AAC 1.2GB ESub

Video
ID : 1
Format : AVC
Format/Info : Advanced Video Codec
Format profile : [email protected]
Format settings : CABAC / 4 Ref Frames
Format settings, CABAC : Yes
Format settings, RefFrames : 4 frames
Codec ID : V_MPEG4/ISO/AVC
Duration : 2 h 9 min
Bit rate : 1 384 kb/s
Width : 1 280 pixels
Height : 544 pixels
Display aspect ratio : 2.35:1
Frame rate mode : Constant
Frame rate : 23.976 (23976/1000) FPS
Color space : YUV
Chroma subsampling : 4:2:0
Bit depth : 8 bits
Scan type : Progressive
Bits/(Pixel*Frame) : 0.083
Stream size : 1.23 GiB (98%)
Title : Fanney Khan (2018) Hindi Proper HDRip 720p AAC 1.2GB ESub
Language : Hindi
Default : Yes
Forced : No
Color range : Limited
Color primaries : BT.709
Transfer characteristics : BT.709
Matrix coefficients : BT.709

Audio
ID : 3
Format : AAC
Format/Info : Advanced Audio Codec
Format profile : LC
Codec ID : A_AAC-2
Duration : 2 h 9 min
Bit rate : 32.2 kb/s
Channel(s) : 2 channels
Channel positions : Front: L R
Sampling rate : 44.1 kHz
Frame rate : 43.066 FPS (1024 SPF)
Compression mode : Lossy
Delay relative to video : -23 ms
Stream size : 29.8 MiB (2%)
Title : Fanney Khan (2018) Hindi Proper HDRip 720p AAC 1.2GB ESub
Language : Hindi
Default : Yes
Forced : No

Text
ID : 2
Format : UTF-8
Codec ID : S_TEXT/UTF8
Codec ID/Info : UTF-8 Plain Text
Duration : 2 h 6 min
Bit rate : 49 b/s
Count of elements : 2041
Stream size : 45.6 KiB (0%)
Title : Fanney Khan (2018) Hindi Proper HDRip 720p AAC 1.2GB ESub
Language : English
Default : Yes
Forced : No

Fanney Khan (2018) Hindi Proper HDRip 720p AAC 1.2GB ESub

Fanney Khan (2018) Hindi Proper HDRip 720p AAC 1.2GB ESub

Leave a Reply

Your email address will not be published. Required fields are marked *