Ek Ladki Ko Dekha Toh Aisa Laga 2019 Hindi PdvdRip 720p 1.3 GB Download/Watch free

DOWNLOAD EVERY SHOWS/SERIAL OF ‘ZEE5’, ‘HOTSTAR’, ‘VOOT’, ‘SONYLIV’, ONLY FROM THIS SITE AFTER 7 DECEMBER 2018

CLICK HERE FOR MORE INFORMATION  अधिक जानकारी के लिए यहां क्लिक करें।

Ek Ladki Ko Dekha Toh Aisa Laga 2019 Hindi PdvdRip 720p

Ek Ladki Ko Dekha Toh Aisa Laga 2019 Hindi PdvdRip 720p,Ek Ladki Ko Dekha Toh Aisa Laga 2019 fullm movie download openload,Ek Ladki Ko Dekha Toh Aisa Laga 2019 hd movie download,(Ek Ladki Ko Dekha Toh Aisa Laga 2019 Hindi PdvdRip 720p),Ek Ladki Ko Dekha Toh Aisa Laga 2019 movie download in hd 720p,Ek Ladki Ko Dekha Toh Aisa Laga 2019 full movie 720p hd print download indishare clicknupload desiupload openload,Ek Ladki Ko Dekha Toh Aisa Laga 2019 movie download for free,Ek Ladki Ko Dekha Toh Aisa Laga 2019 free hd movie download,(Ek Ladki Ko Dekha Toh Aisa Laga 2019 Hindi PdvdRip 720p)

-= “MEDIA INFO” =-

Ek Ladki Ko Dekha Toh Aisa Laga 2019 Hindi PdvdRip 720p
IMDB Ratings: 5.9/10 [Votes 507]

Directer :  Shelly Chopra Dhar
Writer:   Gazal Dhaliwal (Screenplay), Gazal Dhaliwal (dialogue)
Released Date:  1 February 2019 (USA)
Genres:   Comedy, Drama, Romance 
Languages: Hindi
Film Stars:   Anil Kapoor, Juhi Chawla, Sonam Kapoor 
Movie Quality: PDVDRip 720p
File Size: 1.3 GB

Storyline==}} Some love stories are not simple, Sweety’s is one such story. She has to contend with her over-enthusiastic family that wants to get her married, a young writer who is completely smitten by her, a secret that she harbours close to her heart and ultimately the truth that her true love might not find acceptance in her family and society. Resolving these issues proves hilarious, touching and life changing.(Ek Ladki Ko Dekha Toh Aisa Laga 2019 Hindi PdvdRip 720p)

-= “SCREENSHOTS” =-

Ek Ladki Ko Dekha Toh Aisa Laga 2019 Hindi PdvdRip 720p

-= “WATCH ONLINE AND DOWNLOAD LINKS” =-

Ek Ladki Ko Dekha Toh Aisa Laga 2019 Hindi PdvdRip 720p

-= “Watch Online Links” =-

(Use “Google Chrome” Browser For Better Online Watch Or Stream)

Watch From Vup.to 1.3GB
Watch From NXload.com 1.3GB
Watch From Flix555 1.3GB
Watch From Rapidvideo  1.3GB

-= “720P Download Links” =-

Download From Clicknupload
Download From Megaup.net
Download From ddl.to
Download From Uploadfiles

Thanks for Downloading……

Ek Ladki Ko Dekha Toh Aisa Laga 2019 Hindi PdvdRip 720p

-= “Visit Our Other Popular Post To Related This” =-

Manikarnika 2019 Hindi Pdvdrip 480p 400mb Download/Watch Free
Manikarnika 2019 Hindi 700mb Pdvdrip Download And Watch Free
Incredibles 2 2018 Dual Audio [Hindi English] 480p HDRip 450Mb ESubs
Incredibles 2 2018 Dual Audio [Hindi English] 720p HDRip 1Gb ESubs
Download WWE Monday Night Raw 15 October 2018 HDTV 800mb
Download Comedy Circus 2018 Episode 10 14 October 2018 720p HDTV 350Mb
Downlolad Soorma (2018) Hindi HDRip 720p AAC 1.2 GB ESub Free
Download BHARAT: The Great Leader (Bharat Ane Nenu) 2018 Hindi Dubbed Trailer In HD 1080p 720p 480p 360p
Download Thadaka 2 Yuddham Sharanam (2018) 720p HDRip Hindi Dubbed 1GB
Download Fanney Khan (2018) Hindi Proper HDRip 480p 350MB
Fanney Khan (2018) Hindi Proper HDRip 720p AAC 1.2GB ESub
Haseena (2018) Hindi AAC 720p HDRip x264 900 MB
Download Karwaan (2018) Hindi 720p HDRip 850Mb
Download Mulk (2018) Hindi 720p HDRip x264 AAC 1.2Gb
Download Batti Gul Meter Chalu 2018 Hindi PreDvd Rip 700MB
Download Laila Majnu 2018 Hindi DVDScr 700MB x264 Full Movie
Click Here For Bing.com Searchengine
Click Here For Google.co.in
Click Here For Youtube.com

-= “Video And Audio Full Details (Properties)” =-

Ek Ladki Ko Dekha Toh Aisa Laga 2019 Hindi PdvdRip 720p
Format : Matroska
Format version : Version 4 / Version 2
File size : 1.32 GiB
Duration : 1 h 55 min
Overall bit rate : 1 631 kb/s
Movie name : Ek Ladki Ko Dekha Toh Aisa Laga 2019 Hindi PdvdRip 720p

Video
ID : 1
Format : AVC
Format/Info : Advanced Video Codec
Format profile : [email protected]
Format settings : CABAC / 8 Ref Frames
Format settings, CABAC : Yes
Format settings, RefFrames : 8 frames
Codec ID : V_MPEG4/ISO/AVC
Duration : 1 h 55 min
Bit rate : 1 500 kb/s
Width : 1 280 pixels
Height : 536 pixels
Display aspect ratio : 2.40:1
Frame rate mode : Constant
Frame rate : 25.000 FPS
Color space : YUV
Chroma subsampling : 4:2:0
Bit depth : 8 bits
Scan type : Progressive
Bits/(Pixel*Frame) : 0.087
Stream size : 1.21 GiB (92%)
Title : Ek Ladki Ko Dekha Toh Aisa Laga 2019 Hindi PdvdRip 720p
Language : Hindi
Default : Yes
Forced : No
Color range : Limited
Color primaries : BT.709
Transfer characteristics : BT.709
Matrix coefficients : BT.709

Audio
ID : 2
Format : AAC
Format/Info : Advanced Audio Codec
Format profile : LC
Codec ID : A_AAC-2
Duration : 1 h 55 min
Bit rate : 128 kb/s
Channel(s) : 2 channels
Channel positions : Front: L R
Sampling rate : 48.0 kHz
Frame rate : 46.875 FPS (1024 SPF)
Compression mode : Lossy
Delay relative to video : 9 ms
Stream size : 106 MiB (8%)
Title : Ek Ladki Ko Dekha Toh Aisa Laga 2019 Hindi PdvdRip 720p
Language : Hindi
Default : Yes
Forced : No

Ek Ladki Ko Dekha Toh Aisa Laga 2019 Hindi PdvdRip 720p

Ek Ladki Ko Dekha Toh Aisa Laga 2019 Hindi PdvdRip 720p

Ek Ladki Ko Dekha Toh Aisa Laga 2019 Hindi PdvdRip 720p
Summary
Article Name
Ek Ladki Ko Dekha Toh Aisa Laga 2019 Hindi PdvdRip 720p
Description
Ek Ladki Ko Dekha Toh Aisa Laga 2019 movie download in hd 720p,Ek Ladki Ko Dekha Toh Aisa Laga 2019 full movie 720p hd print download indishare clicknupload desiupload openload,Ek Ladki Ko Dekha Toh Aisa Laga 2019 movie download for free,Ek Ladki Ko Dekha Toh Aisa Laga 2019 free hd movie download
Author
Publisher Name
Moviesjug.net

Leave a Reply

Your email address will not be published. Required fields are marked *