Downlolad Soorma (2018) Hindi HDRip 720p AAC 1.2 GB ESub Free

Downlolad Soorma (2018) Hindi HDRip 720p AAC 1.2 GB ESub Free
Soorma (2018) Movie Posters,Images,Pictures,Pics,Screenshots,

Downlolad Soorma (2018) Hindi HDRip 720p AAC 1.2 GB ESub Free,download Soorma (2018) movie in hd 720p,Soorma (2018) full movie download in hd print,Soorma full movie download,download Soorma movie in 1080p 720p 480p,Soorma (2018) hindi movie download full hd in 300 mb,Soorma (2018) movie download in 700MB,Soorma (2018) full movie download in hd for pc for free,Soorma (2018) full movie download 720p openload,download full movie in hindi Soorma (2018) 480p,Soorma (2018) movie download openload,Soorma (2018) full movie download,Soorma (2018) movie in 480p,Soorma (2018) free download full movie 700mb,Soorma (2018) movie download 720p mb,Soorma 2018 full movie download in 300mb,Soorma 2018 full movie download 480p free,Soorma 2018 full movie hd 480p download,download full hindi movie Soorma 720p 700mb,Soorma 2018 full movie download free,Soorma 2018 movie download 720p,new movie Soorma 2018 full hindi hd print download,Soorma 2018 full movie download,(Downlolad Soorma (2018) Hindi HDRip 720p AAC 1.2 GB ESub Free)

Downlolad Soorma (2018) Hindi HDRip 720p AAC 1.2 GB ESub Free
Soorma (2018) Movie Posters,Images,Pictures,Pics,Screenshots,

IMDB Rating: 7.8/1582
Directed: Shaad Ali
Writers: Shaad Ali, Siva Ananth

Released Date: 13 July 2018
Types: Biography, Sport
Film Stars: Diljit Dosanjh, Tapsee Pannu, Angad Bedi
Movie Quality: 720p HDRip
File Size: 1.2 GB

Storyline==}} Soorma is the story of the triumph of the human spirit, about a player, who made headlines for his miraculous comeback after facing a near death experience through sheer determination, hard work and unrelenting passion for the sport.(Downlolad Soorma (2018) Hindi HDRip 720p AAC 1.2 GB ESub Free)

Downlolad Soorma (2018) Hindi HDRip 720p AAC 1.2 GB ESub Free
Soorma (2018) Movie Posters,Images,Pictures,Pics,Screenshots,
Downlolad Soorma (2018) Hindi HDRip 720p AAC 1.2 GB ESub Free
Soorma (2018) Movie Posters,Images,Pictures,Pics,Screenshots,
Downlolad Soorma (2018) Hindi HDRip 720p AAC 1.2 GB ESub

-=”Download Links”=-

Downlolad Soorma (2018) Hindi HDRip 720p AAC 1.2 GB ESub Free
Soorma (2018) Movie Posters,Images,Pictures,Pics,Screenshots,

Download From Openload
Download From Clicknupload
Download From Desiupload
Download From Uploadfiles

Thanks for Downloading…………

Downlolad Soorma (2018) Hindi HDRip 720p AAC 1.2 GB ESub Free
Soorma (2018) Movie Posters,Images,Pictures,Pics,Screenshots,

Visit Our Other Popular Post To Related This

Download L7 (2018) Hindi Dubbed 720p HDRip x264 900MB
Download Game of Thrones S02 Complete Dual Audio Hindi BluRay 720p
Download The Flash S01 Complete Dual Audio Hindi 720p BluRay
Download WWE Smackdown Live 09 October 2018 HDTV 480p 300MB
Download WWE Monday Night Raw 08 October 2018 HDTV 800mb
Haseena (2018) Hindi AAC 720p HDRip x264 900 MB
Download Karwaan (2018) Hindi 720p HDRip 850Mb
Ant Man And The Wasp (2018) Dual Audio [Hindi Cleaned Eng] HDRip 720p x264 ESubs 1Gb
Download Dashing Diljala 2018 Hindi Dubbed 720p HDRip 850Mb
Download Mulk (2018) Hindi 720p HDRip x264 AAC 1.2Gb
Download Dhadak (2018) Hindi 720p HDRip x264 950Mb
Jurassic World Fallen Kingdom (2018) Hindi ORG Dual Audio 720p BluRay 1GB
Download Sui Dhaaga Made in India (2018) Hindi PDVDRip x264 AAC 700MB
Power Unlimited 2 (Touch Chesi Chudu) 2018 Dual Audio 480p HDRip [Hindi Telugu]
18+ X X X Uncensored (2018) S01 All 5 Episodes Hindi 720p HDRip x264 800mb
Power Unlimited 2 (Touch Chesi Chudu) 2018 Dual Audio 720p HDRip [Hindi Telugu]
Download Akira (2016) 720p UNCUT HDRip x264 [Dual Audio] [Hindi Telugu]
Zhongkui Snow Girl and the Dark Crystal (2015) Dual Audio 720p HDRip [Hindi Chinese] 1Gb
Download Saheb Biwi Aur Gangster 3 2018 Hindi 350MB HDRip 480p
Download Saheb Biwi Aur Gangster 3 2018 Hindi 720p HDRip 1Gb
Download Batti Gul Meter Chalu 2018 Hindi PreDvd Rip 700MB
Download Laila Majnu 2018 Hindi DVDScr 700MB x264 Full Movie
Download Mitron 2018 Hindi DVDScr 700 MB Free Moviesjug
Download Manmarziyaan 2018 Hindi pDVDRip 700MB- Moviesjug
Download Genius (2018) Propper Audio Hindi 720p HDRip x264 1.4GB ESubs
Rampage (2018) Dual Audio ORG 720p BRRip Hindi English DD 5.1ch 1GB
Click Here For Bing.com Searchengine
Click Here For Google.co.in
Click Here For Youtube.com

Video And Audio Full Details (Properties)

General
Soorma 2018 full movie download in 300mb,Soorma 2018 full movie download 480p free,Soorma 2018 full movie hd 480p download,download full hindi movie Soorma 720p 700mb,Soorma 2018 full movie download free,Soorma 2018 movie download 720p,new movie Soorma 2018 full hindi hd print download,Soorma 2018 full movie download

Downlolad Soorma (2018) Hindi HDRip 720p AAC 1.2 GB ESub Free
Format : Matroska
Format version : Version 4 / Version 2
File size : 1.22 GiB
Duration : 2 h 10 min
Overall bit rate : 1 330 kb/s
Movie name : Downlolad Soorma (2018) Hindi HDRip 720p AAC 1.2 GB ESub Free

Video
Soorma (2018) movie download in 700MB,Soorma (2018) full movie download in hd for pc for free,Soorma (2018) full movie download 720p openload,download full movie in hindi Soorma (2018) 480p,Soorma (2018) movie download openload,Soorma (2018) full movie download,Soorma (2018) movie in 480p,Soorma (2018) free download full movie 700mb,Soorma (2018) movie download 720p mb

ID : 1
Format : AVC
Format/Info : Advanced Video Codec
Format profile : [email protected]
Format settings : CABAC / 4 Ref Frames
Format settings, CABAC : Yes
Format settings, RefFrames : 4 frames
Codec ID : V_MPEG4/ISO/AVC
Duration : 2 h 10 min
Bit rate : 1 280 kb/s
Width : 1 280 pixels
Height : 544 pixels
Display aspect ratio : 2.35:1
Frame rate mode : Constant
Frame rate : 24.000 FPS
Color space : YUV
Chroma subsampling : 4:2:0
Bit depth : 8 bits
Scan type : Progressive
Bits/(Pixel*Frame) : 0.077
Stream size : 1.15 GiB (95%)
Title : Downlolad Soorma (2018) Hindi HDRip 720p AAC 1.2 GB ESub Free
Language : Hindi
Default : Yes
Forced : No
Color range : Limited
Color primaries : BT.709
Transfer characteristics : BT.709
Matrix coefficients : BT.709

Audio
Downlolad Soorma (2018) Hindi HDRip 720p AAC 1.2 GB ESub Free,download Soorma (2018) movie in hd 720p,Soorma (2018) full movie download in hd print,Soorma full movie download,download Soorma movie in 1080p 720p 480p,Soorma (2018) hindi movie download full hd in 300 mb

ID : 3
Format : MPEG Audio
Format version : Version 1
Format profile : Layer 3
Format settings : Joint stereo / MS Stereo
Codec ID : A_MPEG/L3
Codec ID/Hint : MP3
Duration : 2 h 10 min
Bit rate mode : Constant
Bit rate : 64.0 kb/s
Channel(s) : 2 channels
Sampling rate : 44.1 kHz
Frame rate : 38.281 FPS (1152 SPF)
Compression mode : Lossy
Delay relative to video : -21 ms
Stream size : 59.9 MiB (5%)
Title : Downlolad Soorma (2018) Hindi HDRip 720p AAC 1.2 GB ESub Free
Writing library : LAMEUUULAME3.98.2
Language : Hindi
Default : Yes
Forced : No

Text
ID : 2
Format : UTF-8
Codec ID : S_TEXT/UTF8
Codec ID/Info : UTF-8 Plain Text
Duration : 2 h 10 min
Bit rate : 61 b/s
Count of elements : 1805
Stream size : 58.9 KiB (0%)
Title : Downlolad Soorma (2018) Hindi HDRip 720p AAC 1.2 GB ESub Free
Language : English
Default : Yes
Forced : No

Downlolad Soorma (2018) Hindi HDRip 720p AAC 1.2 GB ESub Free

Downlolad Soorma (2018) Hindi HDRip 720p AAC 1.2 GB ESub Free

Downlolad Soorma (2018) Hindi HDRip 720p AAC 1.2 GB ESub Free

Leave a Reply

Your email address will not be published. Required fields are marked *