Downlolad Sanju Movie (2018) Hindi WEB HD 480p 400 MB ESub

Downlolad Sanju Full Movie (2018) Hindi WEB HD 480p 400 MB ESub
Sanju (2018) Hindi Movie Poster,Images,Pictures,Pics,Screenshots,Posters,

Downlolad Sanju Full Movie (2018) Hindi WEB HD 480p 400 MB ESub,download Sanju (2018) movie in hd 720p,Sanju (2018) full movie download in hd print,Sanju full movie download,download Sanju movie in 1080p 720p 480p,Sanju (2018) hindi movie download full hd in 300 mb,Sanju (2018) movie download in 700MB,Sanju (2018) full movie download in hd for pc for free,Sanju (2018) full movie download 720p openload,download full movie in hindi Sanju (2018) 480p,Sanju (2018) movie download openload,Sanju (2018) full movie download,Sanju (2018) movie in 480p,Sanju (2018) free download full movie 700mb,Sanju (2018) movie download 720p mb,Sanju 2018 480p full movie download in 300mb,Sanju 2018 full movie download 480p free,Sanju 2018 full movie hd 480p download,download full hindi movie Sanju 720p 700mb,Sanju 480p 2018 full movie download free,Sanju 2018 movie download 720p,new movie Sanju 2018 480p full hindi hd print download,Sanju 2018 full movie download 480p ,sanjay dutt new movie sanju download in full hd,ranbeer kapoor latest movie sanju full movie download hd for mobile download sanju movie hd 720p 1 gb (Downlolad Sanju Full Movie (2018) Hindi WEB HD 480p 400 MB ESub)

Downlolad Sanju Full Movie (2018) Hindi WEB HD 480p 400 MB ESub
Sanju (2018) Hindi Movie Poster,Images,Pictures,Pics,Screenshots,Posters,

IMDB Ratings: 8.3/29917
Directed: Rajkumar Hirani
Released Date: 29 June 2018 (India)
Genres: Biography, Dram
Languages: Hindi
Film Stars: Anushka Sharma, Ranbir Kapoor
Movie Quality: 480p WEB HD
File Size: 400 MB

Storyline==}} Few lives in our times are as dramatic and enigmatic as the saga of Sanjay Dutt. Coming from a family of cinema legends, he himself became a film star, and then saw dizzying heights and darkest depths: adulation of die-hard fans, unending battles with various addictions, brushes with the underworld, prison terms, loss of loved ones, and the haunting speculation that he might or might not be a terrorist. Sanju is in turns a hilarious and heartbreaking exploration of one man’s battle against his own wild self and the formidable external forces trying to crush him. It depicts the journey of a man through everything that life can throw at him. Some true stories leave you thinking “did this really happen?” This is one such unbelievable story that happens to be true.(Downlolad Sanju Full Movie (2018) Hindi WEB HD 480p 400 MB ESub)

Downlolad Sanju Full Movie (2018) Hindi WEB HD 480p 400 MB ESub
Sanju (2018) Hindi Movie Poster,Images,Pictures,Pics,Screenshots,Posters,,
Downlolad Sanju Movie (2018) Hindi WEB HD 480p 400 MB ESub
Sanju (2018) Hindi Movie Poster,Images,Pictures,Pics,Screenshots,Posters
Downlolad Sanju Full Movie (2018) Hindi WEB HD 480p 400 MB ESub

-=”Download Links”=-

Downlolad Sanju Full Movie (2018) Hindi WEB HD 480p 400 MB ESub
Sanju (2018) Hindi Movie Poster,Images,Pictures,Pics,Screenshots,Posters,

Download From Openload
Download From Clicknupload
Download From Desiupload

Thanks for Downloading…………

Downlolad Sanju Full Movie (2018) Hindi WEB HD 480p 400 MB ESub
Sanju (2018) Hindi Movie Poster,Images,Pictures,Pics,Screenshots,Posters,,

Visit Our Other Popular Post To Related This

Downlolad Sanju (2018) Hindi HDTVRip 720p AAC 1.2 GB ESub Free
Download Jalebi 2018 Hindi Full Movie PDVDRip 700MB Free Moviesjug
Download Mitron 2018 Hindi DVDScr 700 MB Free Moviesjug
Download Fryday 2018 Hindi Full Movie PDVDRip 700MB Free Moviesjug
Download Pataakha 2018 Hindi Full Movie PDVDRip 700MB Free Moviesjug
Download Helicopter Eela 2018 Hindi Full Movie PDVDRip 700MB Free
Download FryDay (2018) Hindi 720p VER 2 AAC HQ DVD SCR x264 1.5 GB
Downlolad Soorma (2018) Hindi HDRip 720p AAC 1.2 GB ESub Free
Download BHARAT: The Great Leader (Bharat Ane Nenu) 2018 Hindi Dubbed Trailer In HD 1080p 720p 480p 360p
Download Thadaka 2 Yuddham Sharanam (2018) 720p HDRip Hindi Dubbed 1GB
Download Fanney Khan (2018) Hindi Proper HDRip 480p 350MB
Fanney Khan (2018) Hindi Proper HDRip 720p AAC 1.2GB ESub
Haseena (2018) Hindi AAC 720p HDRip x264 900 MB
Download Karwaan (2018) Hindi 720p HDRip 850Mb
Download Mulk (2018) Hindi 720p HDRip x264 AAC 1.2Gb
Download Dhadak (2018) Hindi 720p HDRip x264 950Mb
Download Sui Dhaaga Made in India (2018) Hindi PDVDRip x264 AAC 700MB
18+ X X X Uncensored (2018) S01 All 5 Episodes Hindi 720p HDRip x264 800mb
Download Saheb Biwi Aur Gangster 3 2018 Hindi 350MB HDRip 480p
Download Batti Gul Meter Chalu 2018 Hindi PreDvd Rip 700MB
Download Laila Majnu 2018 Hindi DVDScr 700MB x264 Full Movie
Click Here For Bing.com Searchengine
Click Here For Google.co.in
Click Here For Youtube.com

Video And Audio Full Details (Properties)

General
Sanju 2018 full movie download 480p free,Sanju 2018 full movie hd 480p download,download full hindi movie Sanju 720p 700mb,Sanju 480p 2018 full movie download free,Sanju 2018 movie download 720p,new movie Sanju 2018 480p full hindi hd print download,Sanju 2018 full movie download 480p ,sanjay dutt new movie sanju download in full hd,ranbeer kapoor latest movie sanju full movie download hd for mobile download sanju movie hd 720p 1 gb

Sanju (2018) Hindi [Moviesjug.net] HDRip x264 400MB x264 ESub.mkv
Format : Matroska
Format version : Version 4 / Version 2
File size : 410 MiB
Duration : 2 h 38 min
Overall bit rate mode : Variable
Overall bit rate : 360 kb/s
Movie name : Downloaded From [Moviesjug.net]

Video
Sanju (2018) full movie download 720p openload,download full movie in hindi Sanju (2018) 480p,Sanju (2018) movie download openload,Sanju (2018) full movie download,Sanju (2018) movie in 480p,Sanju (2018) free download full movie 700mb,Sanju (2018) movie download 720p mb,Sanju 2018 480p full movie download in 300mb

ID : 1
Format : AVC
Format/Info : Advanced Video Codec
Format profile : [email protected]
Format settings : CABAC / 4 Ref Frames
Format settings, CABAC : Yes
Format settings, RefFrames : 4 frames
Codec ID : V_MPEG4/ISO/AVC
Duration : 2 h 38 min
Bit rate : 274 kb/s
Width : 640 pixels
Height : 280 pixels
Display aspect ratio : 2.25:1
Frame rate mode : Constant
Frame rate : 24.000 FPS
Color space : YUV
Chroma subsampling : 4:2:0
Bit depth : 8 bits
Scan type : Progressive
Bits/(Pixel*Frame) : 0.064
Stream size : 312 MiB (76%)
Language : Hindi
Default : Yes
Forced : No

Audio
Downlolad Sanju Full Movie (2018) Hindi WEB HD 480p 400 MB ESub,download Sanju (2018) movie in hd 720p,Sanju (2018) full movie download in hd print,Sanju full movie download,download Sanju movie in 1080p 720p 480p,Sanju (2018) hindi movie download full hd in 300 mb,Sanju (2018) movie download in 700MB,Sanju (2018) full movie download in hd for pc for free

ID : 2
Format : MPEG Audio
Format version : Version 1
Format profile : Layer 3
Format settings : Joint stereo / MS Stereo
Codec ID : A_MPEG/L3
Codec ID/Hint : MP3
Duration : 2 h 38 min
Bit rate mode : Variable
Bit rate : 84.1 kb/s
Nominal bit rate : 96.0 kb/s
Channel(s) : 2 channels
Sampling rate : 44.1 kHz
Frame rate : 38.281 FPS (1152 SPF)
Compression mode : Lossy
Stream size : 95.6 MiB (23%)
Title : Downloaded From [Moviesjug.net]
Writing library : LAME3.99r
Encoding settings : -m j -V 4 -q 3 -lowpass 15.1 –abr 96
Language : Hindi
Default : Yes
Forced : No

Text
ID : 3
Format : UTF-8
Codec ID : S_TEXT/UTF8
Codec ID/Info : UTF-8 Plain Text
Duration : 2 h 34 min
Bit rate : 52 b/s
Count of elements : 1856
Stream size : 59.3 KiB (0%)
Title : Downloaded From [Moviesjug.net]
Language : English
Default : Yes
Forced : No

 

Downlolad Sanju Full Movie (2018) Hindi WEB HD 480p 400 MB ESub

Downlolad Sanju Full Movie (2018) Hindi WEB HD 480p 400 MB ESub

Downlolad Sanju Full Movie (2018) Hindi WEB HD 480p 400 MB ESub

Leave a Reply

Your email address will not be published. Required fields are marked *