Download WWE Smackdown Live 09 October 2018 HDTV 480p 300MB

Download WWE Smackdown Live 09 October 2018 HDTV 480p 300MB
WWE Smackdown Live Posters,pics,images,screeshots,

Download WWE Smackdown Live 09 October 2018 HDTV 480p 300MB,WWE Smackdown Live 09 October 2018 HDTV 480p 300MB download in hd for free, download WWE Smackdown Live 09 October 2018 Oct 2018 for mobile in hd, download WWE Smackdown Live 09 October 2018 720 in 500mb 300mb,WWE Smackdown Live 09 October 2018 full show download in hd for pc,wwe smackdown download 300mb for mobile 10.10.2018 10 Oct 2018, download wwe smackdown,wwe smackdown download in full hd for mobile,wwe smackdown download in hd 720p for pc mobile,WWE Smackdown Live 09 October 2018 HDTV 720p 900 MB,wwe smackdown videos download,wwe smackdown live today,wwe smackdown 2018 live,wwe shows download sites,wwe full show download mp4,wwe smackdown videos download,

Download WWE Smackdown Live 09 October 2018 HDTV 480p 300MB
WWE Smackdown Live 09 October 2018 Posters,pics,images,screeshots

Event Name: WWE Smackdown Live 09 October 2018
Release.Date : 10.10.2018
Air.Date : 09.10.2018
Genre: Wrestling | Sport | Entertainment
Language: English
Country:India
Quality: HDTV 480p 300 MB
Size: 300 MB

Storyline==}} WWE Smackdown is Weekly sports show, with frequent commentary, interviews, side plots and hype.Download WWE Smackdown Live 09 October 2018 HDTV 480p 300MB

Download WWE Smackdown Live 09 October 2018 HDTV 480p 300MB
WWE Smackdown Live 09 October 2018 Posters,pics,images,screeshots
Download WWE Smackdown Live 09 October 2018 HDTV 480p 300MB
WWE Smackdown Live 09 October 2018 Posters,pics,images,screeshots
Download WWE Smackdown Live 09 October 2018 HDTV 480p 300MB
WWE Smackdown Live 09 October 2018 Posters,pics,images,screeshots

Download Links

Download From Openload
Download From Clicknupload
Download From Desiupload

Thanks for Downloading…………

Download WWE Smackdown Live 09 October 2018 HDTV 480p 300MB
WWE Smackdown Live 09 October 2018 Posters,pics,images,screeshots

Visit Our Other Popular Post To Related This

Download WWE Monday Night Raw 08 October 2018 HDTV 800mb
Haseena (2018) Hindi AAC 720p HDRip x264 900 MB
Download Karwaan (2018) Hindi 720p HDRip 850Mb
Ant Man And The Wasp (2018) Dual Audio [Hindi Cleaned Eng] HDRip 720p x264 ESubs 1Gb
Download Dashing Diljala 2018 Hindi Dubbed 720p HDRip 850Mb
Download Mulk (2018) Hindi 720p HDRip x264 AAC 1.2Gb
Download Dhadak (2018) Hindi 720p HDRip x264 950Mb
Jurassic World Fallen Kingdom (2018) Hindi ORG Dual Audio 720p BluRay 1GB
Download Sui Dhaaga Made in India (2018) Hindi PDVDRip x264 AAC 700MB
Power Unlimited 2 (Touch Chesi Chudu) 2018 Dual Audio 480p HDRip [Hindi Telugu]
18+ X X X Uncensored (2018) S01 All 5 Episodes Hindi 720p HDRip x264 800mb
Power Unlimited 2 (Touch Chesi Chudu) 2018 Dual Audio 720p HDRip [Hindi Telugu]
Download Akira (2016) 720p UNCUT HDRip x264 [Dual Audio] [Hindi Telugu]
Zhongkui Snow Girl and the Dark Crystal (2015) Dual Audio 720p HDRip [Hindi Chinese] 1Gb
Download Saheb Biwi Aur Gangster 3 2018 Hindi 350MB HDRip 480p
Download Saheb Biwi Aur Gangster 3 2018 Hindi 720p HDRip 1Gb
Download Batti Gul Meter Chalu 2018 Hindi PreDvd Rip 700MB
Download Laila Majnu 2018 Hindi DVDScr 700MB x264 Full Movie
Download Mitron 2018 Hindi DVDScr 700 MB Free Moviesjug
Download Manmarziyaan 2018 Hindi pDVDRip 700MB- Moviesjug
Download Genius (2018) Propper Audio Hindi 720p HDRip x264 1.4GB ESubs
Rampage (2018) Dual Audio ORG 720p BRRip Hindi English DD 5.1ch 1GB
Click Here For Bing.com Searchengine
Click Here For Google.co.in
Click Here For Youtube.com

Video And Audio Full Details (Properties)

General
Download WWE Smackdown Live 09 October 2018 HDTV 480p 300MB
Format : Matroska
Format version : Version 4 / Version 2
File size : 340 MiB
Duration : 1 h 25 min
Overall bit rate : 554 kb/s
Movie name : Download WWE Smackdown Live 09 October 2018 HDTV 480p 300MB

Video
ID : 1
Format : AVC
Format/Info : Advanced Video Codec
Format profile : [email protected]
Format settings : CABAC / 4 Ref Frames
Format settings, CABAC : Yes
Format settings, RefFrames : 4 frames
Codec ID : V_MPEG4/ISO/AVC
Duration : 1 h 25 min
Bit rate : 520 kb/s
Width : 712 pixels
Height : 400 pixels
Display aspect ratio : 16:9
Frame rate mode : Constant
Frame rate : 23.976 (24000/1001) FPS
Color space : YUV
Chroma subsampling : 4:2:0
Bit depth : 8 bits
Scan type : Progressive
Bits/(Pixel*Frame) : 0.076
Stream size : 320 MiB (94%)
Title : Downloaded From MoviesJug.Net
Language : English
Default : Yes
Forced : No

Audio
ID : 2
Format : AAC
Format/Info : Advanced Audio Codec
Format profile : HE-AAC / LC
Format settings : NBC
Codec ID : A_AAC-5
Duration : 1 h 25 min
Bit rate : 32.0 kb/s
Channel(s) : 2 channels
Channel positions : Front: L R
Sampling rate : 22.05 kHz / 11.025 kHz
Frame rate : 10.767 FPS (1024 SPF)
Compression mode : Lossy
Delay relative to video : -229 ms
Stream size : 19.7 MiB (6%)
Title : Download WWE Smackdown Live 09 October 2018 HDTV 480p 300MB
Language : English
Default : Yes
Forced : No

 

Download WWE Smackdown Live 09 October 2018 HDTV 480p 300MB

Download WWE Smackdown Live 09 October 2018 HDTV 480p 300MB

Leave a Reply

Your email address will not be published. Required fields are marked *