Download WWE Smackdown Live 04 December 2018 HDTV 480p 300MB

DOWNLOAD EVERY SHOWS/SERIAL OF ‘ZEE5’, ‘HOTSTAR’, ‘VOOT’, ‘SONYLIV’, ONLY FROM THIS SITE AFTER 7 DECEMBER 2018

CLICK HERE FOR MORE INFORMATION  अधिक जानकारी के लिए यहां क्लिक करें।

 

Download WWE Smackdown Live 04 December 2018 HDTV 480p 300MB
Download WWE Smackdown Live 04 December 2018 HDTV 480p 300MB

Download WWE Smackdown Live 04 December 2018 HDTV 480p 300MB,WWE Smackdown Live 04 December 2018 HDTV 480p 300MB download in hd for free, download WWE Smackdown Live 04 December 2018 2018 for mobile in hd, download WWE Smackdown Live 04 December 720p in 500mb 300mb,WWE Smackdown Live 04 December 2018 full show download in hd for pc,wwe smackdown download 300mb for mobile 04.12.2018 13 November 2018, download wwe smackdown,

wwe smackdown 04 December 2018 download in full hd for mobile,wwe smackdown download in hd 720p for pc mobile,Download WWE Smackdown Live 04 December 2018 HDTV 480p 300MB,wwe smackdown videos download 04 December,wwe smackdown live today show download,wwe smackdown 2018 live,wwe shows download sites,wwe full show download mp4,wwe smackdown videos download,Download Download WWE Smackdown Live 04 December 2018 HDTV 480p 300MB

Download WWE Smackdown Live 04 December 2018 HDTV 480p 300MB
Download WWE Smackdown Live 04 December 2018 HDTV 480p 300MB

Event Name: Download WWE Smackdown Live 04 December 2018 HDTV 480p 300MB
Release.Date : 03.12.2018
Air.Date : 04.12.2018
Genre: Wrestling | Sport | Entertainment
Language: English
Country:India
Quality: HDTV 480p 300 MB
Size: 300 MB

Storyline==}} WWE Smackdown is Weekly sports show, with frequent commentary, interviews, side plots and hype.Download WWE Smackdown Live 04 December 2018 HDTV 480p 300MB

Download WWE Smackdown Live 04 December 2018 HDTV 480p 300MB
Download WWE Smackdown Live 04 December 2018 HDTV 480p 300MB

Download WWE Smackdown Live 04 December 2018 HDTV 480p 300MB

Download WWE Smackdown Live 04 December 2018 HDTV 480p 300MB

Download WWE Smackdown Live 04 December 2018 HDTV 480p 300MB
Download WWE Smackdown Live 04 December 2018 HDTV 480p 300MB

-=Download Links=-

Download From Filerio
Download From Desiupload
Download From Vidoza
Download From Tusfiles

Thanks for Downloading…………

Download WWE Smackdown Live 04 December 2018 HDTV 480p 300MB
Download WWE Smackdown Live 04 December 2018 HDTV 480p 300MB

Visit Our Other Popular Post To Related This

Download WWE Monday Night Raw 15 October 2018 HDTV 800mb
Download Comedy Circus 2018 Episode 10 14 October 2018 720p HDTV 350Mb
Download Indian Idol Season 10 Episode 30 14th October 2018 720p HDTV 550Mb
Downlolad Sanju Full Movie (2018) Hindi WEB HD 480p 400 MB ESub
Downlolad Sanju (2018) Hindi HDTVRip 720p AAC 1.2 GB ESub Free
Download Jalebi 2018 Hindi Full Movie PDVDRip 700MB Free Moviesjug
Download Mitron 2018 Hindi DVDScr 700 MB Free Moviesjug
Download Fryday 2018 Hindi Full Movie PDVDRip 700MB Free Moviesjug
Download Pataakha 2018 Hindi Full Movie PDVDRip 700MB Free Moviesjug
Download Helicopter Eela 2018 Hindi Full Movie PDVDRip 700MB Free
Download FryDay (2018) Hindi 720p VER 2 AAC HQ DVD SCR x264 1.5 GB
Downlolad Soorma (2018) Hindi HDRip 720p AAC 1.2 GB ESub Free
Download BHARAT: The Great Leader (Bharat Ane Nenu) 2018 Hindi Dubbed Trailer In HD 1080p 720p 480p 360p
Download Thadaka 2 Yuddham Sharanam (2018) 720p HDRip Hindi Dubbed 1GB
Download Fanney Khan (2018) Hindi Proper HDRip 480p 350MB
Fanney Khan (2018) Hindi Proper HDRip 720p AAC 1.2GB ESub
Haseena (2018) Hindi AAC 720p HDRip x264 900 MB
Download Karwaan (2018) Hindi 720p HDRip 850Mb
Download Mulk (2018) Hindi 720p HDRip x264 AAC 1.2Gb
Download Dhadak (2018) Hindi 720p HDRip x264 950Mb
Download Sui Dhaaga Made in India (2018) Hindi PDVDRip x264 AAC 700MB
18+ X X X Uncensored (2018) S01 All 5 Episodes Hindi 720p HDRip x264 800mb
Download Saheb Biwi Aur Gangster 3 2018 Hindi 350MB HDRip 480p
Download Batti Gul Meter Chalu 2018 Hindi PreDvd Rip 700MB
Download Laila Majnu 2018 Hindi DVDScr 700MB x264 Full Movie
Click Here For Bing.com Searchengine
Click Here For Google.co.in
Click Here For Youtube.com

Video And Audio Full Details (Properties)

General
Download WWE Smackdown Live 04 December 2018 HDTV 480p 300MB
Format : Matroska
Format version : Version 4 / Version 2
File size : 354 MiB
Duration : 1 h 29 min
Overall bit rate : 556 kb/s
Movie name : Download WWE Smackdown Live 04 December 2018 HDTV 480p 300MB

Video
ID : 1
Format : AVC
Format/Info : Advanced Video Codec
Format profile : [email protected]
Format settings : CABAC / 4 Ref Frames
Format settings, CABAC : Yes
Format settings, RefFrames : 4 frames
Codec ID : V_MPEG4/ISO/AVC
Duration : 1 h 29 min
Bit rate : 520 kb/s
Width : 704 pixels
Height : 400 pixels
Display aspect ratio : 16:9
Frame rate mode : Constant
Frame rate : 23.976 (24000/1001) FPS
Color space : YUV
Chroma subsampling : 4:2:0
Bit depth : 8 bits
Scan type : Progressive
Bits/(Pixel*Frame) : 0.077
Stream size : 333 MiB (94%)
Title : Download WWE Smackdown Live 04 December 2018 HDTV 480p 300MB
Default : Yes
Forced : No
Color range : Limited
Color primaries : BT.709
Transfer characteristics : BT.709
Matrix coefficients : BT.709

Audio
ID : 2
Format : AAC
Format/Info : Advanced Audio Codec
Format profile : HE-AAC / LC
Format settings : NBC
Codec ID : A_AAC-5
Duration : 1 h 29 min
Bit rate : 32.0 kb/s
Channel(s) : 2 channels
Channel positions : Front: L R
Sampling rate : 22.05 kHz / 11.025 kHz
Frame rate : 10.767 FPS (1024 SPF)
Compression mode : Lossy
Delay relative to video : -229 ms
Stream size : 20.4 MiB (6%)
Title : Download WWE Smackdown Live 04 December 2018 HDTV 480p 300MB
Language : English
Default : Yes
Forced : No

 

Download WWE Smackdown Live 04 December 2018 HDTV 480p 300MB

Download WWE Smackdown Live 04 December 2018 HDTV 480p 300MB

Download WWE Smackdown Live 04 December 2018 HDTV 480p 300MB
Summary
Article Name
Download WWE Smackdown Live 04 December 2018 HDTV 480p 300MB
Description
Download WWE Smackdown Live 04 December 2018 HDTV 480p 300MB,WWE Smackdown Live 04 December 2018 HDTV 480p 300MB download in hd for free, download WWE Smackdown Live 04 December 2018 2018 for mobile in hd, download WWE Smackdown Live 04 December 720p in 500mb 300mb,WWE Smackdown Live 04 December 2018 full show download in hd for pc
Author
Publisher Name
Moviesjug.Net

Leave a Reply

Your email address will not be published. Required fields are marked *