Download WWE Monday Night Raw 15 October 2018 HDTV 800mb

Download WWE Monday Night Raw 15 October 2018 HDTV 800mb
WWE Monday Night Raw Posters,pics,images,screeshots,

Download WWE Monday Night Raw 15 October 2018 HDTV 800mb,WWE Monday Night Raw 15 October 2018 download in hd for free, download WWE Monday Night Raw 15 October 2018 for mobile in hd, download WWE Monday Night Raw 15 October 2018 720 in 500mb 300mb, wwe raw full show download in hd for pc,wwe raw download 300mb for mobile 15.10.2018 15 Oct 2018, download wwe raw,raw download in full hd for mobile,wwe minday night raw download in hd 720p for pc mobile,WWE Monday Night Raw 15 October 2018 HDTV 480p 700mb,Watch Monday night raw,Watch monday Night raw 2018,watch monday night rew 08 October,Watch mWWE Monday Night Raw 15 October 2018,watch monday night raw latest,download latest wwe raw,watch wwe latest fight,download wwe raw latest,WWE Monday Night Raw 15 October 2018 download openload,WWE Monday Night Raw 15 October 2018 download,WWE Monday Night Raw 08 October 2018 in 480p,WWE Monday Night Raw 15 October 2018 free download full show 700mb,WWE Monday Night Raw 15 October 2018 download 720p ,WWE Monday Night Raw 08 October 2018 full movie download in 300mb,mitron full movie download 480p free,RAW full show hd 480p download,download full WWE Monday Night Raw 08 Oct 2018 720p 700mb,WWE Monday Night Raw 15 ctober 2018 full Show download free,WWE Monday Night Raw 15/10/2018 download 720p,WWE Monday Night Raw 15.10.2018 700mb,WWE Monday Night Raw 15 Oct 2018 mkv download,WWE Monday Night Raw 15 October 2018 download in 480p,Download WWE Monday Night Raw 15 October 2018 HDTV 480p 800mb,download WWE Monday Night Raw 15/October/2018 wrbrip hd,free WWE Monday Night Raw 15/Oct/ 2018 free full. episode download,WWE Monday Night Raw 15.Oct.2018 480p hdrip full show free download,WWE Monday Night Raw 15 October 2018 6 oct 2018 9x.movie,WWE Monday Night Raw 15 October 2018 full show download 700mb,WWE Monday Night Raw 15 October 2018 full download 400mb,

Download WWE Monday Night Raw 15 October 2018 HDTV 800mb
WWE Monday Night Raw Posters,pics,images,screeshots,

Show Name:WWE Monday Night Raw 15 October 2018
Release.Date : 15 October 2018
Air.Date: 14 October 2018
Genre : Wrestling | Sport | Entertainment
Language: English
Country: America
Quality: HDTV
Size: 780 MB

Storyline==}} The superstars of World Wrestling Entertainment’s “RAW” brand collide each and every week on WWE Monday Night RAW, broadcast once again each and every week on the USA cable network.Download WWE Monday Night Raw 15 October 2018 HDTV 800mb

Download WWE Monday Night Raw 15 October 2018 HDTV 800mb
WWE Monday Night Raw Posters,pics,images,screeshots,
Download WWE Monday Night Raw 15 October 2018 HDTV 800mb
WWE Monday Night Raw 15 October 2018 Posters,pics,images,screeshots,
Download WWE Monday Night Raw 15 October 2018 HDTV 800mb

Download Links

Download WWE Monday Night Raw 15 October 2018 HDTV 800mb
WWE Monday Night Raw Posters,pics,images,screeshots,

uploading……………

Download From Openload
Download From Clicknupload
Download From Desiupload
Download From Uploadfiles

Thanks for Downloading…………

Download WWE Monday Night Raw 15 October 2018 HDTV 800mb
WWE Monday Night Raw Posters,pics,images,screeshots,

Visit Our Other Popular Post To Related This

Haseena (2018) Hindi AAC 720p HDRip x264 900 MB
Download Karwaan (2018) Hindi 720p HDRip 850Mb
Ant Man And The Wasp (2018) Dual Audio [Hindi Cleaned Eng] HDRip 720p x264 ESubs 1Gb
Download Dashing Diljala 2018 Hindi Dubbed 720p HDRip 850Mb
Download Mulk (2018) Hindi 720p HDRip x264 AAC 1.2Gb
Download Dhadak (2018) Hindi 720p HDRip x264 950Mb
Jurassic World Fallen Kingdom (2018) Hindi ORG Dual Audio 720p BluRay 1GB
Download Sui Dhaaga Made in India (2018) Hindi PDVDRip x264 AAC 700MB
Power Unlimited 2 (Touch Chesi Chudu) 2018 Dual Audio 480p HDRip [Hindi Telugu]
18+ X X X Uncensored (2018) S01 All 5 Episodes Hindi 720p HDRip x264 800mb
Power Unlimited 2 (Touch Chesi Chudu) 2018 Dual Audio 720p HDRip [Hindi Telugu]
Download Akira (2016) 720p UNCUT HDRip x264 [Dual Audio] [Hindi Telugu]
Zhongkui Snow Girl and the Dark Crystal (2015) Dual Audio 720p HDRip [Hindi Chinese] 1Gb
Download Saheb Biwi Aur Gangster 3 2018 Hindi 350MB HDRip 480p
Download Saheb Biwi Aur Gangster 3 2018 Hindi 720p HDRip 1Gb
Download Batti Gul Meter Chalu 2018 Hindi PreDvd Rip 700MB
Download Laila Majnu 2018 Hindi DVDScr 700MB x264 Full Movie
Download Mitron 2018 Hindi DVDScr 700 MB Free Moviesjug
Download Manmarziyaan 2018 Hindi pDVDRip 700MB- Moviesjug
Download Genius (2018) Propper Audio Hindi 720p HDRip x264 1.4GB ESubs
Rampage (2018) Dual Audio ORG 720p BRRip Hindi English DD 5.1ch 1GB
Click Here For Bing.com Searchengine
Click Here For Google.co.in
Click Here For Youtube.com

Video And Audio Full Details (Properties)

General
WWE Monday Night Raw 15 ctober 2018 full Show download free,WWE Monday Night Raw 15/10/2018 download 720p,WWE Monday Night Raw 15.10.2018 700mb,WWE Monday Night Raw 15 Oct 2018 mkv download,WWE Monday Night Raw 15 October 2018 download in 480p,Download WWE Monday Night Raw 15 October 2018 HDTV 480p 800mb,download WWE Monday Night Raw 15/October/2018 wrbrip hd,free WWE Monday Night Raw 15/Oct/ 2018 free full. episode download,WWE Monday Night Raw 15.Oct.2018 480p hdrip full show free download,WWE Monday Night Raw 15 October 2018 6 oct 2018 9x.movie,WWE Monday Night Raw 15 October 2018 full show download 700mb,WWE Monday Night Raw 15 October 2018 full download 400mb,

Download WWE Monday Night Raw 15 October 2018 HDTV 800mbHDTV 800mb.mkv
Format : Matroska
Format version : Version 4 / Version 2
File size : 780 MiB
Duration : 2 h 11 min
Overall bit rate : 832 kb/s
Movie name : Download WWE Monday Night Raw 15 October 2018 HDTV 800mb

Video

WWE Monday Night Raw 15 October 2018 download openload,WWE Monday Night Raw 15 October 2018 download,WWE Monday Night Raw 08 October 2018 in 480p,WWE Monday Night Raw 15 October 2018 free download full show 700mb,WWE Monday Night Raw 15 October 2018 download 720p ,WWE Monday Night Raw 08 October 2018 full movie download in 300mb,mitron full movie download 480p free,RAW full show hd 480p download,download full WWE Monday Night Raw 08 Oct 2018 720p 700mb

Download WWE Monday Night Raw 15 October 2018 HDTV 800mb
ID : 1
Format : AVC
Format/Info : Advanced Video Codec
Format profile : [email protected]
Format settings : CABAC / 2 Ref Frames
Format settings, CABAC : Yes
Format settings, RefFrames : 2 frames
Codec ID : V_MPEG4/ISO/AVC
Duration : 2 h 11 min
Bit rate : 702 kb/s
Width : 848 pixels
Height : 480 pixels
Display aspect ratio : 16:9
Frame rate mode : Constant
Frame rate : 29.970 FPS
Color space : YUV
Chroma subsampling : 4:2:0
Bit depth : 8 bits
Scan type : Progressive
Bits/(Pixel*Frame) : 0.058
Stream size : 657 MiB (84%)
Title : Download WWE Monday Night Raw 15 October 2018 HDTV 800mb
Language : English
Default : Yes
Forced : No

Audio
Download WWE Monday Night Raw 15 October 2018 HDTV 800mb,WWE Monday Night Raw 15 October 2018 download in hd for free, download WWE Monday Night Raw 15 October 2018 for mobile in hd, download WWE Monday Night Raw 15 October 2018 720 in 500mb 300mb, wwe raw full show download in hd for pc,wwe raw download 300mb for mobile 15.10.2018 15 Oct 2018, download wwe raw,raw download in full hd for mobile,wwe minday night raw download in hd 720p for pc mobile,WWE Monday Night Raw 15 October 2018 HDTV 480p 700mb,Watch Monday night raw,Watch monday Night raw 2018,watch monday night rew 08 October,Watch mWWE Monday Night Raw 15 October 2018,watch monday night raw latest,download latest wwe raw,watch wwe latest fight,download wwe raw latest

ID : 2
Format : AAC
Format/Info : Advanced Audio Codec
Format profile : LC
Codec ID : A_AAC-2
Duration : 2 h 11 min
Bit rate : 128 kb/s
Channel(s) : 2 channels
Channel positions : Front: L R
Sampling rate : 44.1 kHz
Frame rate : 43.066 FPS (1024 SPF)
Compression mode : Lossy
Delay relative to video : -33 ms
Stream size : 120 MiB (15%)
Title : Download WWE Monday Night Raw 15 October 2018 HDTV 800mb
Language : English
Default : Yes
Forced : No

Download WWE Monday Night Raw 15 October 2018 HDTV 800mb

Download WWE Monday Night Raw 15 October 2018 HDTV 800mb

Download WWE Monday Night Raw 15 October 2018 HDTV 800mb

Summary
Article Name
Download WWE Monday Night Raw 15 October 2018 HDTV 800mb
Description
Download WWE Monday Night Raw 15 October 2018 HDTV 800mb,WWE Monday Night Raw 15 October 2018 download in hd for free, download WWE Monday Night Raw 15 October 2018 for mobile in hd, download WWE Monday Night Raw 15 October 2018 720 in 500mb 300mb, wwe raw full show download in hd for pc,wwe raw download 300mb for mobile 15.10.2018 15 Oct 2018, download wwe raw,raw download in full hd for mobile,wwe minday night raw download in hd 720p for pc mobile
Author
Publisher Name
Moviesjug.net

Leave a Reply

Your email address will not be published. Required fields are marked *