Download WWE Hell In A Cell 2018 PPV WEBRip 480p x264 800MB

Download WWE Hell In A Cell 2018 PPV WebRip 1.5 GB
hell in a cell 2018 hd Posters,pics,images,screeshots

Download WWE Hell In A Cell 2018 PPV WEBRip 480p x264 800MB download in hd for free, download WWE Hell In A Cell 2018 for mobile in hd, download WWE Hell In A Cell 2018 720 in 500mb 300mb, WWE Hell In A Cell 2018 full show download in hd for pc,wwe hell In A Cell 2018 download 300mb for mobile 16.9.2018 sep 2018, download wwe hell In A Cell,wwe hell In A Cell download in full hd for mobile,wwe hell In A Cell night wwe hell In A Cell download in hd 720p for pc mobile, Braun strowman and roman reigns latest fight match download hell in a cell, samoa jao vs aj styles latest match download show,roman vs braun latest match show download in hd,wwe hell In A Cell 2018, Rousey vs. Alexa Bliss, Shinsuke Nakamura vs. Jeff Hardy, The Miz & Maryse vs. Daniel Bryan & Brie Bella, The Underaker, Torrent Download Hell in a Cell 2018, watch Hell in a Cell 2018 online, Watch Live WWE Network Special Livestream, Watch Live WWE Network Special WWE Hell in a Cell Full Show Online Free, Watch the full PPV WWE Hell in a Cell 2018 8/16/18 free. WWE Hell in a Cell 2018 online, watch wrestling, Watch WWE Hell in a Cell, watch WWE Hell in a Cell 2018 full show, watch WWE Hell in a Cell 2018 live, watch WWE Hell in a Cell 8/16/18 full show, watch WWE Hell in a Cell 8/16/2018 full show dailymotion, watch WWE Hell in a Cell 8/16/2018 full show live stream, watch WWE Hell in a Cell 8/16/2018 full show online free, watch WWE Hell in a Cell 8/16/2018 livestream, Watch WWE Hell in a Cell Live stream

 

Download WWE Hell In A Cell 2018 PPV WebRip 1.5 GB
hell in a cell 2018 hd Posters,pics,images,screeshots

Event: Download WWE Hell In A Cell 2018 PPV WEBRip 480p x264 800MB
Release.Date : 17 September 2018
Air.Date: 16 September 2018
Genre : Wrestling | Sport | Entertainment
Language: English
Country: America
Quality: 720p HDTV
Size:
Runtime:

Storyline==}} The superstars of RAW and Smackdown will take each other to Hell, while others will go through Hell in a Cell.

Download Manmarziyaan 2018 Hindi pDVDRip 700MB- Moviesjug
hell in a cell 2018 hd Posters,pics,images,screeshots

 

Download Links

Download From Openload.co
Download from Clicknupload
Download From Desiupload

Download WWE Hell In A Cell 2018 PPV WEBRip 480p x264 800MB

Video And Audio Full Details (Properties)

General
Download WWE Hell In A Cell 2018 PPV WEBRip 480p x264 800MB
Format : Matroska
Format version : Version 4 / Version 2
File size : 1.53 GiB
Duration : 3 h 40 min
Overall bit rate : 995 kb/s
Movie name : Download WWE Hell In A Cell 2018 PPV WEBRip 480p x264 800MB

Video
ID : 1
Format : AVC
Format/Info : Advanced Video Codec
Format profile : [email protected]
Format settings : CABAC / 5 Ref Frames
Format settings, CABAC : Yes
Format settings, RefFrames : 5 frames
Codec ID : V_MPEG4/ISO/AVC
Duration : 3 h 40 min
Bit rate : 896 kb/s
Width : 896 pixels
Height : 504 pixels
Display aspect ratio : 16:9
Frame rate mode : Constant
Frame rate : 29.970 (30000/1001) FPS
Color space : YUV
Chroma subsampling : 4:2:0
Bit depth : 8 bits
Scan type : Progressive
Bits/(Pixel*Frame) : 0.066
Stream size : 1.39 GiB (90%)
Title : Download WWE Hell In A Cell 2018 PPV WEBRip 480p x264 800MB
Language : English
Default : Yes
Forced : No

Audio
ID : 2
Format : AAC
Format/Info : Advanced Audio Codec
Format profile : LC
Codec ID : A_AAC-2
Duration : 3 h 40 min
Bit rate : 93.5 kb/s
Channel(s) : 2 channels
Channel positions : Front: L R
Sampling rate : 48.0 kHz
Frame rate : 46.875 FPS (1024 SPF)
Compression mode : Lossy
Stream size : 148 MiB (9%)
Title : Download WWE Hell In A Cell 2018 PPV WEBRip 480p x264 800MB
Language : English
Default : Yes
Forced : No

Visit Our Other Popular Post To Related This

Download WWE Hell In a Cell Kickoff 2018 WebRip 700 MB
Download Manmarziyaan 2018 Hindi pDVDRip 700MB- Moviesjug
Download Genius (2018) Propper Audio Hindi 480p HDRip x264 400 MB
Download Genius (2018) Hindi 720p HDRip x264 1.4GB ESubs

Download Robot 2.0 2018 Hindi Dubbed Teaser In HD 1080p 720p 480p 360p
Tere Liye MP3 Song 320Kbps Atif Aslam And Akanksha Bhandari
Download Tere Liye Song HD Namaste England 2018 1080p 720p 480p BY Atif Aslam
WWE Smackdown Live 11 September 2018 HDTV 720p 900 MB
WWE Monday Night Raw 10 September 2018 HDTV 480p 700mb
Download Ant Man and the Wasp 2018 Dual Audio Hindi English 480p HDTC 300mb
Rampage (2018) Dual Audio ORG 720p BRRip Hindi English DD 5.1ch 1GB
Click Here For Bing.com Searchengine
Click Here For Google.co.in
Click Here For Youtube.com

Cell Live stream, watch WWE network live event 8/16/2018 full show,online free, wwe batista, WWE Hell in a Cell 16 September 2018 full,show, WWE Hell in a Cell 16th September 2018 full show online free,WWE Hell in a Cell 2018, WWE Hell in a Cell 2018 live, WWE Hell in a Cell 2018 live free, WWE Hell in a Cell 2018 match, WWE Hell in a Cell 2018 Online, WWE Hell in a Cell 2018 videos online, WWE Hell in a Cell Full Show, wwe ronda rousey

 

Download WWE Hell In A Cell 2018 PPV WEBRip 480p x264 800MB

Download WWE Hell In A Cell 2018 PPV WEBRip 480p x264 800MB

Download WWE Hell In A Cell 2018 PPV WEBRip 480p x264 800MB

 

Summary
Article Name
Download WWE Hell In A Cell 2018 PPV WEBRip 480p x264 800MB
Description
Download WWE Hell In A Cell 2018 PPV WEBRip 480p x264 800MB download in hd for free, download WWE Hell In A Cell 2018 for mobile in hd, download WWE Hell In A Cell 2018 720 in 500mb 300mb, WWE Hell In A Cell 2018 full show download in hd for pc,wwe hell In A Cell 2018 download 300mb for mobile 16.9.2018 sep 2018, download wwe hell In A Cell,wwe hell In A Cell download in full hd for mobile,wwe hell In A Cell night wwe hell In A Cell download in hd 720p for pc mobile, Braun strowman and roman reigns latest fight match download hell in a cell,
Author
Publisher Name
Moviesjug.net

Leave a Reply

Your email address will not be published. Required fields are marked *