Download Tumbbad 2018 Hindi Full Movie 720p HDRip 800MB Free

DOWNLOAD EVERY SHOWS/SERIAL OF ‘ZEE5’, ‘HOTSTAR’, ‘VOOT’, ‘SONYLIV’, ONLY FROM THIS SITE AFTER 7 DECEMBER 2018

CLICK HERE FOR MORE INFORMATION  अधिक जानकारी के लिए यहां क्लिक करें।

 

Download Tumbbad 2018 Hindi Full Movie 720p HDRip 800MB Free
Download Tumbbad 2018 Hindi Full Movie 720p HDRip 800MB Free

Download Tumbbad 2018 Hindi Full Movie 720p HDRip 800MB Free,Download Tumbbad full movie hdrip for free,download Tumbbad movie in hdrip 720p,Tumbbad full movie download in hdrip print,download Tumbbad movie in 1080p hd 720p hd 480p hd,Tumbbad movie hdrip download full hd in 300 mb,Tumbbad movie download in hd print 700MB,Tumbbad full movie download in hdrip for pc for free,Tumbbad full movie download 720p openload in hdrip,Download Tumbbad 2018 Hindi Full Movie 720p HDRip 800MB Free
download full hindi movie Tumbbad 720p hdrip 700mb,Tumbbad full movie download hdrip hd print free,Tumbbad movie download in full hdrip 720p,new movie hdrip 720p Tumbbad Tumbbad Toombad Tummbad herip Tumbadd Tumbaad full hindi hd print hrip download,Download Tumbbad 2018 Hindi Full Movie 720p HDRip 800MB Free

Download Tumbbad 2018 Hindi Full Movie 720p HDRip 800MB Free
Download Tumbbad 2018 Hindi Full Movie 720p HDRip 800MB Free

IMDB Ratings: 8.8/10  [3,567 Vote]
Directed: Rahi Anil Barve, Anand Gandhi
Writer: Mitesh Shah, Adesh Prasad

Released Date: 12 October 2018 (India)
Genres: Drama , Horror , Thriller
Film Stars: Cameron Anderson, Ronjini Chakraborty, Deepak Damle
Movie Quality: HDRip 720p
File Size: 800MB

Storyline==}}Set in Tumbbad in the 1920s, the story revolves around the three generations of a family facing the consequences when they build a temple for the first-born of a goddess, named Hastar–he who must not be worshiped. Hastar is a terrible entity who can curse a person yet also can grant gold coins. And the story put emphasis on human nature and the never ending greed. The myth of Hastar is, when the Goddess of Prosperity created the world she gave birth to Hastar followed by 16 Crore Gods and Goddesses. Hastar being her first born was her favorite child, but Hastar was very greedy. When the Goddess of Prosperity offered Hastar the ownership of all the gold in the universe or all the food, he took the gold as well as tried to take over the food in his greed fighting with is brothers and sisters. The 16 crore gods and goddesses overpowered Hastar and when they tried to kill him, the Goddess of Prosperity intervened and begged for his life. The 16 crore gods and goddesses accepted her. (Download Tumbbad 2018 Hindi Full Movie 720p HDRip 800MB Free )

Download Tumbbad 2018 Hindi Full Movie 720p HDRip 800MB Free
Download Tumbbad 2018 Hindi Full Movie 720p HDRip 800MB Free
Download Tumbbad 2018 Hindi Full Movie 720p HDRip 800MB Free
Download Tumbbad 2018 Hindi Full Movie 720p HDRip 800MB Free

Download Tumbbad 2018 Hindi Full Movie 720p HDRip 800MB Free

-=Watch Online Links-=

Download Tumbbad 2018 Hindi Full Movie 720p HDRip 800MB Free
Download Tumbbad 2018 Hindi Full Movie 720p HDRip 800MB Free

Download Tumbbad 2018 Hindi Full Movie 720p HDRip 800MB Free

-=Download Links=-

Download Tumbbad 2018 Hindi Full Movie 720p HDRip 800MB Free
Download Tumbbad 2018 Hindi Full Movie 720p HDRip 800MB Free

Download From Filerio
Download From Desiupload
Download From Vidoza
Download From Uploadfiles

Thanks for Downloading……

Download Tumbbad 2018 Hindi Full Movie 720p HDRip 800MB Free
Download Tumbbad 2018 Hindi Full Movie 720p HDRip 800MB Free

Visit Our Other Popular Post To Related This

Haseena (2018) Hindi AAC 720p HDRip x264 900 MB
Download Karwaan (2018) Hindi 720p HDRip 850Mb
Ant Man And The Wasp (2018) Dual Audio [Hindi Cleaned Eng] HDRip 720p x264 ESubs 1Gb
Download Dashing Diljala 2018 Hindi Dubbed 720p HDRip 850Mb
Download Mulk (2018) Hindi 720p HDRip x264 AAC 1.2Gb
Download Dhadak (2018) Hindi 720p HDRip x264 950Mb
Jurassic World Fallen Kingdom (2018) Hindi ORG Dual Audio 720p BluRay 1GB
Download Sui Dhaaga Made in India (2018) Hindi PDVDRip x264 AAC 700MB
Power Unlimited 2 (Touch Chesi Chudu) 2018 Dual Audio 480p HDRip [Hindi Telugu]
18+ X X X Uncensored (2018) S01 All 5 Episodes Hindi 720p HDRip x264 800mb
Power Unlimited 2 (Touch Chesi Chudu) 2018 Dual Audio 720p HDRip [Hindi Telugu]
Download Akira (2016) 720p UNCUT HDRip x264 [Dual Audio] [Hindi Telugu]
Zhongkui Snow Girl and the Dark Crystal (2015) Dual Audio 720p HDRip [Hindi Chinese] 1Gb
Download Saheb Biwi Aur Gangster 3 2018 Hindi 350MB HDRip 480p
Download Saheb Biwi Aur Gangster 3 2018 Hindi 720p HDRip 1Gb
Download Batti Gul Meter Chalu 2018 Hindi PreDvd Rip 700MB
Download Laila Majnu 2018 Hindi DVDScr 700MB x264 Full Movie
Download Mitron 2018 Hindi DVDScr 700 MB Free Moviesjug
Download Manmarziyaan 2018 Hindi pDVDRip 700MB- Moviesjug
Download Genius (2018) Propper Audio Hindi 720p HDRip x264 1.4GB ESubs
Rampage (2018) Dual Audio ORG 720p BRRip Hindi English DD 5.1ch 1GB
Click Here For Bing.com Searchengine
Click Here For Google.co.in
Click Here For Youtube.com

Video And Audio Full Details (Properties)

General
Download Tumbbad 2018 Hindi Full Movie 720p HDRip 800MB Free
Format : Matroska
Format version : Version 4 / Version 2
File size : 841 MiB
Duration : 1 h 44 min
Overall bit rate : 1 121 kb/s
Movie name : Download Tumbbad 2018 Hindi Full Movie 720p HDRip 800MB Free

Video
ID : 1
Format : AVC
Format/Info : Advanced Video Codec
Format profile : [email protected]
Format settings : CABAC / 4 Ref Frames
Format settings, CABAC : Yes
Format settings, RefFrames : 4 frames
Codec ID : V_MPEG4/ISO/AVC
Duration : 1 h 44 min
Bit rate : 1 000 kb/s
Width : 1 280 pixels
Height : 544 pixels
Display aspect ratio : 2.35:1
Frame rate mode : Constant
Frame rate : 23.976 (24000/1001) FPS
Color space : YUV
Chroma subsampling : 4:2:0
Bit depth : 8 bits
Scan type : Progressive
Bits/(Pixel*Frame) : 0.060
Stream size : 744 MiB (88%)
Title : Download Tumbbad 2018 Hindi Full Movie 720p HDRip 800MB Free
Default : Yes
Forced : No
Color range : Limited
Color primaries : BT.709
Transfer characteristics : BT.709
Matrix coefficients : BT.709

Audio
ID : 2
Format : AAC
Format/Info : Advanced Audio Codec
Format profile : LC
Codec ID : A_AAC-2
Duration : 1 h 44 min
Bit rate : 128 kb/s
Channel(s) : 2 channels
Channel positions : Front: L R
Sampling rate : 22.05 kHz
Frame rate : 21.533 FPS (1024 SPF)
Compression mode : Lossy
Delay relative to video : -46 ms
Stream size : 96.2 MiB (11%)
Title : Download Tumbbad 2018 Hindi Full Movie 720p HDRip 800MB Free
Language : Hindi
Default : Yes
Forced : No

 

Download Tumbbad 2018 Hindi Full Movie 720p HDRip 800MB Free

Download Tumbbad 2018 Hindi Full Movie 720p HDRip 800MB Free

Download Tumbbad 2018 Hindi Full Movie 720p HDRip 800MB Free

Summary
Article Name
Download Tumbbad 2018 Hindi Full Movie 720p HDRip 800MB Free
Description
Download Tumbbad 2018 Hindi Full Movie 720p HDRip 800MB Free,Download Tumbbad full movie hdrip for free,download Tumbbad movie in hdrip 720p,Tumbbad full movie download in hdrip print,download Tumbbad movie in 1080p hd 720p hd 480p hd,Tumbbad movie hdrip download full hd in 300 mb,Tumbbad movie download in hd print 700MB
Author
Publisher Name
Moviesjug.net

Leave a Reply

Your email address will not be published. Required fields are marked *