Download The Flash S01 Complete Dual Audio Hindi 720p BluRay

DOWNLOAD EVERY SHOWS/SERIAL OF ‘ZEE5’, ‘HOTSTAR’, ‘VOOT’, ‘SONYLIV’, ONLY FROM THIS SITE AFTER 7 DECEMBER 2018

CLICK HERE FOR MORE INFORMATION  अधिक जानकारी के लिए यहां क्लिक करें।

 

 

Download The Flash S01 Complete Dual Audio Hindi 720p BluRay
The Flash S01 Posters,pics,images,screenshots.

Download The Flash S01 Complete Dual Audio Hindi 720p BluRay,the flash season 1 download in hindi in hd for free,the flash hindi Dubbed episodes download for pc,the flash episode download in hindi hd 1080p 720p 480p dual audio,the flash dual audio hindi download for mobile,flash hindi episodes download in hd for free,the flash all episodes download in hindi,the flash hindi dubbed download,download the flash episode 1 episode 2 episode 3 episode 4 episode 5 episode 6 episodde 7 episode 8 epiosde 9  epiosde 10 in hindi dual audio 300mb 400mb 100mb 1gb free,

Download The Flash S01 Complete Dual Audio Hindi 720p BluRay
The Flash S01 Posters,pics,images,screenshots

IMDB Ratings: 8.0/10
Show: The Flash S01 Complete Dual Audio Hindi 720p BluRay
Genres: Action, Adventure, Drama
Language: Hindi + English
Quality: 720p BluRay
Size: 400 MB Per Episodes
Creators: Greg Berlanti, Geoff Johns, Andrew Kreisberg
Stars: Grant Gustin, Candice Patton, Danielle Panabaker

Storyline==}} Barry Allen is a Central City police forensic scientist with a reasonably happy life, despite the childhood trauma of a mysterious red and yellow lightning killing his mother and framing his father. All that changes when a massive particle accelerator accident leads to Barry being struck by lightning in his lab.Coming out of coma nine months later, Barry and his new friends at S.T.A.R labs find that he now has the ability to move at superhuman speed.
Furthermore, Barry learns that he is but one of many affected by that event, most of whom are using their powers for evil. Determined to make a difference, Barry dedicates his life to fighting such threats, as The Flash. While he gains allies he never expected, there are also secret forces determined to aid and manipulate him for their own agenda.Download The Flash S01 Complete Dual Audio Hindi 720p BluRay

Download The Flash S01 Complete Dual Audio Hindi 720p BluRay
The Flash S01 Posters,pics,images,screenshots

“1st Episode Screenshots”

Download The Flash S01 Complete Dual Audio Hindi 720p BluRay
The Flash S01 Posters,pics,images,screenshots

-=Download Links=-

Download The Flash S01 Complete Dual Audio Hindi 720p BluRay
Download The Flash S01 Posters,Images,Screenshots,pics,picture

Download Links Episode 1 Dual Audio Hindi 720p

Download From Openload
Download From Clicknupload
Download From Desiupload
Download From Uploadfiles

Download Links Episode 2 Dual Audio Hindi 720p

Download From Openload
Download From Clicknupload
Download From Desiupload
Download From Uploadfiles

Download Links Episode 3 Dual Audio Hindi 720p

Download From Openload
Download From Clicknupload
Download From Desiupload
Download From Uploadfiles

Download Links Episode 4 Dual Audio Hindi 720p

Download From Openload
Download From Clicknupload
Download From Desiupload
Download From Uploadfiles

Download Links Episode 5 Dual Audio Hindi 720p

Download From Openload
Download From Clicknupload
Download From Desiupload
Download From Uploadfiles

Download Links Episode 6 Dual Audio Hindi 720p

Download From Openload
Download From Clicknupload
Download From Desiupload
Download From Uploadfiles

Download Links Episode 7 Dual Audio Hindi 720p

Download From Openload
Download From Clicknupload
Download From Desiupload
Download From Uploadfiles

Download Links Episode 8 Dual Audio Hindi 720p

Download From Openload
Download From Clicknupload
Download From Desiupload
Download From Uploadfiles

Download Links Episode 9 Dual Audio Hindi 720p

Download From Openload
Download From Clicknupload
Download From Desiupload
Download From Uploadfiles

Download Links Episode 10 Dual Audio Hindi 720p

Download From Openload
Download From Clicknupload
Download From Desiupload
Download From Uploadfiles

Download Links Episode 11 Dual Audio Hindi 720p

Download From Openload
Download From Clicknupload
Download From Desiupload
Download From Uploadfiles

Download Links Episode 12 Dual Audio Hindi 720p

Download From Openload
Download From Clicknupload
Download From Desiupload
Download From Uploadfiles

Download Links Episode 13 Dual Audio Hindi 720p

Download From Openload
Download From Filerio
Download From Desiupload
Download From TUSFiles
Download From Vidoza

Download Links Episode 14 Dual Audio Hindi 720p

Download From Openload
Download From Filerio
Download From Desiupload
Download From TUSFiles
Download From Videoza

Download Links Episode 15 Dual Audio Hindi 720p

Download From Openload
Download From Filerio
Download From Desiupload
Download From TUSFiles
Download From Videoza

Download Links Episode 16 Dual Audio Hindi 720p

Download From Openload
Download From Filerio
Download From Desiupload
Download From TUSFiles
Download From Videoza

1st Episode Video And Audio Full Details

General
Download The Flash S01 Complete Dual Audio Hindi 720p BluRay
Format : Matroska
Format version : Version 4 / Version 2
File size : 405 MiB
Duration : 44 min 26 s
Overall bit rate : 1 273 kb/s
Movie name :Download The Flash S01 Complete Dual Audio Hindi 720p BluRay
download the flash hindi dubbed episodes,download the flash episodes in hindi,the flash hindi dubbed all episodes download in hd

Video
ID : 1
Format : AVC
Format/Info : Advanced Video Codec
Format profile : [email protected]
Format settings : CABAC / 5 Ref Frames
Format settings, CABAC : Yes
Format settings, RefFrames : 5 frames
Codec ID : V_MPEG4/ISO/AVC
Duration : 44 min 25 s
Bit rate : 1 048 kb/s
Width : 1 280 pixels
Height : 720 pixels
Display aspect ratio : 16:9
Frame rate mode : Constant
Frame rate : 23.976 (24000/1001) FPS
Color space : YUV
Chroma subsampling : 4:2:0
Bit depth : 8 bits
Scan type : Progressive
Bits/(Pixel*Frame) : 0.047
Stream size : 333 MiB (82%)
Title : Download The Flash S01 Complete Dual Audio Hindi 720p BluRay
Language : English
Default : Yes
Forced : No

Audio #1
ID : 2
Format : AC-3
Format/Info : Audio Coding 3
Codec ID : A_AC3
Duration : 44 min 26 s
Bit rate mode : Constant
Bit rate : 160 kb/s
Channel(s) : 6 channels
Channel positions : Front: L C R, Side: L R, LFE
Sampling rate : 48.0 kHz
Frame rate : 31.250 FPS (1536 SPF)
Bit depth : 16 bits
Compression mode : Lossy
Stream size : 50.9 MiB (13%)
Title : Download The Flash S01 Complete Dual Audio Hindi 720p BluRay
Language : Hindi
Service kind : Complete Main
Default : Yes
Forced : No

Audio #2
ID : 3
Format : AAC
Format/Info : Advanced Audio Codec
Format profile : HE-AAC / LC
Format settings : Explicit
Codec ID : A_AAC-2
Duration : 44 min 26 s
Bit rate : 63.9 kb/s
Channel(s) : 2 channels
Channel positions : Front: L R
Sampling rate : 48.0 kHz / 24.0 kHz
Frame rate : 23.438 FPS (1024 SPF)
Compression mode : Lossy
Delay relative to video : 31 ms
Stream size : 20.3 MiB (5%)
Title : Download The Flash S01 Complete Dual Audio Hindi 720p BluRay
Language : English
Default : No
Forced : No

Visit Our Other Popular Post To Related This

WWE Monday Night Raw 24 September 2018 HDTV 800mb
WWE Smackdown Live 25 September 2018 HDTV 480p 300MB
Download WWE Hell In A Cell 2018 PPV WebRip 1.5 GB
Download WWE Hell In A Cell 2018 PPV WEBRip 480p x264 800MB
WWE Monday Night Raw 10 September 2018 HDTV 480p 700mb
WWE Monday Night Raw 17 September 2018 HDTV 480p 500mb
Download WWE Hell In A Cell 2018 PPV HDTV 720p – Moviesjug
Download Manmarziyaan 2018 Hindi pDVDRip 700MB- Moviesjug
Download Genius (2018) Hindi 720p HDRip x264 1.4GB ESubs
Download Genius (2018) Hindi 480p HDRip x264 400 MB ESubs
Download Robot 2.0 2018 Hindi Dubbed Teaser In HD 1080p 720p 480p 360p
Download Kanchana 3 (Anando Brahma) (2018) Hindi Dubbed 480p HDRip 400 MB
Click Here For Bing.com Searchengine
Click Here For Google.co.in
Click Here For Youtube.com

Download The Flash S01 Complete Dual Audio Hindi 720p BluRay

Download The Flash S01 Complete Dual Audio Hindi 720p BluRay

Download The Flash S01 Complete Dual Audio Hindi 720p BluRay

Leave a Reply

Your email address will not be published. Required fields are marked *