Download Tere Liye Song HD Namaste England 2018 1080p 720p 480p BY Atif Aslam

Download Tere Liye Song HD Namaste England 2018 1080p 720p 480p BY Atif Aslam
Tere Liye Song HD Namaste England 2018 Posters,pics,images,screeshots

Download Tere Liye Song HD Namaste England 2018 1080p 720p 480p BY Atif Aslam, Download tere liye song namaste england movie 2018,download namaste england song tereliye by atif aslam full hd song download, atif aslam new song tere liye download in 720p full hd,parineeti chopra and arjun kapoor new song tere liye download in hd for mobile for free, tere liye namaste england song download in mp3. download mp3 song tere liye by atif aslam,atif aslam latest song tere liye downlod in mp3

Download Tere Liye Song HD Namaste England 2018 1080p 720p 480p BY Atif Aslam
Tere Liye Song HD Namaste England 2018 Posters,pics,images,screeshots

Song Name : Tere Liye
Movie name: Namaste England 2018
Singer: Atif Aslam And Akanksha Bhandari
Country : Indian
Language : Hindi

Download Links 1080p 40MB

Download From Openload
Download From Clicknupload
Dwonload From Desiupload

Download Links 720p 25 MB

Download From Openload
Download From Clicknupload
Dwonload From Desiupload

Download Links 480p 18 MB

Download From Openload
Download From Clicknupload
Dwonload From Desiupload

Download Links Mp3 File 320kbps

Download From Openload
Download From Clicknupload
Dwonload From Desiupload

Video And Audio Full Details (Properties) 1080p File Details

 

General
Download Tere Liye Song HD www.Moviesjug.net Namaste England 2018 1080p BY Atif Aslam.mp4
Format : MPEG-4
Format profile : Base Media
Codec ID : isom (isom/iso2/avc1/mp41)
File size : 39.9 MiB
Duration : 3 min 1 s
Overall bit rate : 1 844 kb/s
Writing application : Lavf56.40.101

Video
ID : 1
Format : AVC
Format/Info : Advanced Video Codec
Format profile : [email protected]
Format settings : CABAC / 3 Ref Frames
Format settings, CABAC : Yes
Format settings, RefFrames : 3 frames
Codec ID : avc1
Codec ID/Info : Advanced Video Coding
Duration : 3 min 1 s
Duration_FirstFrame : -42 ms
Bit rate : 1 713 kb/s
Width : 1 920 pixels
Height : 1 080 pixels
Display aspect ratio : 16:9
Frame rate mode : Variable
Frame rate : 24.000 FPS
Minimum frame rate : 24.000 FPS
Maximum frame rate : 24.013 FPS
Color space : YUV
Chroma subsampling : 4:2:0
Bit depth : 8 bits
Scan type : Progressive
Bits/(Pixel*Frame) : 0.034
Stream size : 37.0 MiB (93%)
Color range : Limited
Color primaries : BT.709
Transfer characteristics : BT.709
Matrix coefficients : BT.709

Audio
ID : 2
Format : AAC
Format/Info : Advanced Audio Codec
Format profile : LC
Codec ID : mp4a-40-2
Duration : 3 min 1 s
Bit rate mode : Constant
Bit rate : 126 kb/s
Channel(s) : 2 channels
Channel positions : Front: L R
Sampling rate : 44.1 kHz
Frame rate : 43.066 FPS (1024 SPF)
Compression mode : Lossy
Stream size : 2.72 MiB (7%)
Default : Yes
Alternate group : 1

 

Vist Our Other Popular Post To Related This

WWE Smackdown Live 11 September 2018 HDTV 720p 900 MB
WWE Monday Night Raw 10 September 2018 HDTV 480p 700mb
Download Sketch (2018) 720p HDRip Official Hindi Dubbed Promo
Download Sanju (2018) v2 Hind 700MB Pre-DVDRip (Cleaned) x264 AAC
Download Bismillah Ki Barkat Movie1983 Part 1 (10 Min.) Download  Moviesjug.net
Click Here For Bing.com Searchengine
Click Here For Google.co.in
Click Here For Youtube.com

Download Tere Liye Song HD Namaste England 2018 1080p 720p 480p BY Atif Aslam

Download Tere Liye Song HD Namaste England 2018 1080p 720p 480p BY Atif Aslam

Leave a Reply

Your email address will not be published. Required fields are marked *