Download Teefa In Trouble 2018 Hindi Full Movie 720p HDRip 1Gb Free

DOWNLOAD EVERY SHOWS/SERIAL OF ‘ZEE5’, ‘HOTSTAR’, ‘VOOT’, ‘SONYLIV’, ONLY FROM THIS SITE AFTER 7 DECEMBER 2018

CLICK HERE FOR MORE INFORMATION  अधिक जानकारी के लिए यहां क्लिक करें।

Download Teefa In Trouble 2018 Hindi Full Movie 720p HDRip 1Gb Free
Download Teefa In Trouble 2018 Hindi Full Movie 720p HDRip 1Gb Free

Download Teefa In Trouble 2018 Hindi Full Movie 720p HDRip 1Gb Free,Download Teefa In Trouble 2018 Hindi full movie hdrip for free,download Teefa In Trouble 2018 Hindi movie in hdrip 720p,Teefa In Trouble 2018 full movie download in hdrip print,download Teefa In Trouble 2018 movie in 1080p hd 720p hd 480p hd,Teefa In Trouble 2018 movie hdrip download full hd in 300 mb,Teefa In Trouble 2018 movie download in hd print 700MB,Teefa In Trouble 2018 full movie download in hdrip for pc for free,Teefa In Trouble 2018 full movie download 720p openload in hdrip,Download Teefa In Trouble 2018 Hindi Full Movie 720p HDRip 1Gb Free
download full hindi movie Teefa In Trouble 2018 720p hdrip 700mb,Teefa In Trouble 2018 full movie download hdrip hd print free,Teefa In Trouble 2018 movie download in full hdrip 720p,new movie hdrip 720p Teefa In Trouble 2018 tifa trouble Tifa Trabal Teepha Trubal Teefa In Trubul full hindi hd print hrip download,Download New Pakistani Movie Hdrip,Download Pakistani Movie Teefa In Trouble 2018 In Full Hd,Download Teefa In Trouble 2018 Hindi Full Movie 720p HDRip 1Gb Free

Download Teefa In Trouble 2018 Hindi Full Movie 720p HDRip 1Gb Free
Download Teefa In Trouble 2018 Hindi Full Movie 720p HDRip 1Gb Free

IMDB Ratings: 8.1/10
Genres: Action, Comedy, Crime
Language: Hindi
Quality: 720p HDRip
Size: 1GB
Director: Ahsan Rahim
Writer: Ahsan Rahim
Stars: Ali Zafar, Maya Ali, Mehmood Aslam

Storyline==}} Teefa goes to Poland to get Anya to Pakistan to marry Butt gangster’s son but lands up in trouble with Anya’s gangster father and the Polish police. (Download Teefa In Trouble 2018 Hindi Full Movie 720p HDRip 1Gb Free)

Download Teefa In Trouble 2018 Hindi Full Movie 720p HDRip 1Gb Free
Download Teefa In Trouble 2018 Hindi Full Movie 720p HDRip 1Gb Free
Download Teefa In Trouble 2018 Hindi Full Movie 720p HDRip 1Gb Free
Download Teefa In Trouble 2018 Hindi Full Movie 720p HDRip 1Gb Free

Download Teefa In Trouble 2018 Hindi Full Movie 720p HDRip 1Gb Free

-=Watch Online Links-=

Download Teefa In Trouble 2018 Hindi Full Movie 720p HDRip 1Gb Free
Download Teefa In Trouble 2018 Hindi Full Movie 720p HDRip 1Gb Free
Download Teefa In Trouble 2018 Hindi Full Movie 720p HDRip 1Gb Free
Download Teefa In Trouble 2018 Hindi Full Movie 720p HDRip 1Gb Free

-=Download Links=-

Download Teefa In Trouble 2018 Hindi Full Movie 720p HDRip 1Gb Free
Download Teefa In Trouble 2018 Hindi Full Movie 720p HDRip 1Gb Free

Download From Filerio
Download From Desiupload
Download From Vidoza
Download From TusFiles

Thanks for Downloading……

Download Teefa In Trouble 2018 Hindi Full Movie 720p HDRip 1Gb Free
Download Teefa In Trouble 2018 Hindi Full Movie 720p HDRip 1Gb Free

Visit Our Other Popular Post To Related This

Haseena (2018) Hindi AAC 720p HDRip x264 900 MB
Download Karwaan (2018) Hindi 720p HDRip 850Mb
Ant Man And The Wasp (2018) Dual Audio [Hindi Cleaned Eng] HDRip 720p x264 ESubs 1Gb
Download Dashing Diljala 2018 Hindi Dubbed 720p HDRip 850Mb
Download Mulk (2018) Hindi 720p HDRip x264 AAC 1.2Gb
Download Dhadak (2018) Hindi 720p HDRip x264 950Mb
Jurassic World Fallen Kingdom (2018) Hindi ORG Dual Audio 720p BluRay 1GB
Download Sui Dhaaga Made in India (2018) Hindi PDVDRip x264 AAC 700MB
Power Unlimited 2 (Touch Chesi Chudu) 2018 Dual Audio 480p HDRip [Hindi Telugu]
18+ X X X Uncensored (2018) S01 All 5 Episodes Hindi 720p HDRip x264 800mb
Power Unlimited 2 (Touch Chesi Chudu) 2018 Dual Audio 720p HDRip [Hindi Telugu]
Download Akira (2016) 720p UNCUT HDRip x264 [Dual Audio] [Hindi Telugu]
Zhongkui Snow Girl and the Dark Crystal (2015) Dual Audio 720p HDRip [Hindi Chinese] 1Gb
Download Saheb Biwi Aur Gangster 3 2018 Hindi 350MB HDRip 480p
Download Saheb Biwi Aur Gangster 3 2018 Hindi 720p HDRip 1Gb
Download Batti Gul Meter Chalu 2018 Hindi PreDvd Rip 700MB
Download Laila Majnu 2018 Hindi DVDScr 700MB x264 Full Movie
Download Mitron 2018 Hindi DVDScr 700 MB Free Moviesjug
Download Manmarziyaan 2018 Hindi pDVDRip 700MB- Moviesjug
Download Genius (2018) Propper Audio Hindi 720p HDRip x264 1.4GB ESubs
Rampage (2018) Dual Audio ORG 720p BRRip Hindi English DD 5.1ch 1GB
Click Here For Bing.com Searchengine
Click Here For Google.co.in
Click Here For Youtube.com

Video And Audio Full Details (Properties)

General
Teefa In Trouble 2018 [Moviesjug.net] Hindi 720p HDRip.mkv
Format : Matroska
Format version : Version 4 / Version 2
File size : 1.01 GiB
Duration : 2 h 35 min
Overall bit rate : 931 kb/s
Movie name : Downloaded From [Moviesjug.net]

Video
ID : 1
Format : AVC
Format/Info : Advanced Video Codec
Format profile : [email protected]
Format settings : CABAC / 4 Ref Frames
Format settings, CABAC : Yes
Format settings, RefFrames : 4 frames
Codec ID : V_MPEG4/ISO/AVC
Duration : 2 h 35 min
Bit rate : 900 kb/s
Width : 1 280 pixels
Height : 532 pixels
Display aspect ratio : 2.40:1
Frame rate mode : Constant
Frame rate : 23.976 (24000/1001) FPS
Color space : YUV
Chroma subsampling : 4:2:0
Bit depth : 8 bits
Scan type : Progressive
Bits/(Pixel*Frame) : 0.055
Stream size : 998 MiB (96%)
Title : Downloaded From [Moviesjug.net]
Writing library : x264 core 142
Language : Urdu
Default : Yes
Forced : No
Color range : Limited
Color primaries : BT.709
Transfer characteristics : BT.709
Matrix coefficients : BT.709

Audio
ID : 2
Format : AAC
Format/Info : Advanced Audio Codec
Format profile : HE-AAC / LC
Format settings : NBC
Codec ID : A_AAC-5
Duration : 2 h 35 min
Bit rate : 32.0 kb/s
Channel(s) : 2 channels
Channel positions : Front: L R
Sampling rate : 22.05 kHz / 11.025 kHz
Frame rate : 10.767 FPS (1024 SPF)
Compression mode : Lossy
Delay relative to video : -83 ms
Stream size : 35.6 MiB (3%)
Title : Downloaded From [Moviesjug.net]
Language : Hindi
Default : Yes
Forced : No

Download Teefa In Trouble 2018 Hindi Full Movie 720p HDRip 1Gb Free

Download Teefa In Trouble 2018 Hindi Full Movie 720p HDRip 1Gb Free

Download Teefa In Trouble 2018 Hindi Full Movie 720p HDRip 1Gb Free

Summary
Article Name
Download Teefa In Trouble 2018 Hindi Full Movie 720p HDRip 1Gb Free
Description
Download Teefa In Trouble 2018 Hindi Full Movie 720p HDRip 1Gb Free,Download Teefa In Trouble 2018 Hindi full movie hdrip for free,download Teefa In Trouble 2018 Hindi movie in hdrip 720p,Teefa In Trouble 2018 full movie download in hdrip print,download Teefa In Trouble 2018 movie in 1080p hd 720p hd 480p hd,Teefa In Trouble 2018 movie hdrip download full hd in 300 mb,Teefa In Trouble 2018 movie download in hd print 700MB,
Author
Publisher Name
Moviesjug.net

Leave a Reply

Your email address will not be published. Required fields are marked *