Download Sui Dhaaga Made in India (2018) Hindi PDVDRip x264 AAC 700MB

Download Sui Dhaaga Made in India (2018) Hindi PDVDRip x264 AAC 700MB
Download Sui Dhaaga Made in India (2018) Hindi Poster,Pics,Images,Screenshots,Picture

Download Sui Dhaaga Made in India (2018) Hindi PDVDRip x264 AAC 700MB,Download Sui Dhaaga Made in India (2018) Hindi full movie in hd for free,download Sui Dhaaga Made in India (2018) Hindi movie in hd 720p,Sui Dhaaga Made in India (2018) Hindi full movie download in hd print,download Sui Dhaaga Made in India (2018),Download Sui Dhaaga Made in India (2018) Hindi sui dhaga sue dhaagaa latest full movie full hd,Sui Dhaaga Made in India (2018) Hindi movie in 1080p 720p 480p,Sui Dhaaga Made in India (2018) Hindi movie download full hd in 300 mb,Sui Dhaaga Made in India (2018) Hindi movie download in 700MB,Sui Dhaaga Made in India (2018) Hindi full movie download in hd for pc for free,

Download Sui Dhaaga Made in India (2018) Hindi PDVDRip x264 AAC 700MB
Download Sui Dhaaga Made in India (2018) Hindi Poster,Pics,Images,Screenshots,Picture

IMDB Rating: 7.1/10
Directed: Sharat Katariya
Released Date: 28 September 2018
Types: Comedy ,Drama
Film Stars: Varun Dhawan, Anushka Sharma, Raghuvir Yadav
Movie Quality: pDVDRip
File Size: 700MB

Storyline==}} Yash Raj Films’ “Sui Dhaaga – Made in India” is a heartwarming story of pride and self reliance, which finds its roots in the heart of India and reflects the passion that runs through the veins of every single Indian. Taking the message of “Made in India” forward, the film modestly tries to bring back our traditional art forms and handicrafts in focus. The film is helmed by National award winning Producer – Director Duo of Maneesh Sharma and Sharat Katariya “Dum Laga Ke Haisha” and features Varun Dhawan and Anushka Sharma in the lead roles.

Download Sui Dhaaga Made in India (2018) Hindi PDVDRip x264 AAC 700MB
Download Sui Dhaaga Made in India (2018) Hindi Poster,Pics,Images,Screenshots,Picture
Download Sui Dhaaga Made in India (2018) Hindi PDVDRip x264 AAC 700MB
Download Sui Dhaaga Made in India (2018) Hindi Poster,Pics,Images,Screenshots,Picture

Download Sui Dhaaga Made in India (2018) Hindi PDVDRip x264 AAC 700MB

Download Links

Download From Openload
Download From Clicknupload
Download From Desiupload
Download From Uploadfiles

Video And Audio Full Details (Properties)

General
Download Sui Dhaaga Made in India (2018) Hindi PDVDRip x264 AAC 700MB.mkv
Format : Matroska
Format version : Version 4 / Version 2
File size : 703 MiB
Duration : 1 h 57 min
Overall bit rate : 837 kb/s
Movie name : Download Sui Dhaaga Made in India (2018) Hindi PDVDRip x264 AAC 700MB

Video
ID : 1
Format : AVC
Format/Info : Advanced Video Codec
Format profile : [email protected]
Format settings : CABAC / 4 Ref Frames
Format settings, CABAC : Yes
Format settings, RefFrames : 4 frames
Codec ID : V_MPEG4/ISO/AVC
Duration : 1 h 57 min
Bit rate : 704 kb/s
Width : 720 pixels
Height : 396 pixels
Display aspect ratio : 2.2:1
Original display aspect ratio : 2.2:1
Bits/(Pixel*Frame) : 0.099
Stream size : 593 MiB (84%)
Title : Download Sui Dhaaga Made in India (2018) Hindi PDVDRip x264 AAC 700MB
Default : Yes
Forced : No
Color range : Limited
Color primaries : BT.601 PAL
Transfer characteristics : BT.709
Matrix coefficients : BT.601

Audio
ID : 2
Format : AAC
Format/Info : Advanced Audio Codec
Format profile : LC
Codec ID : A_AAC-2
Duration : 1 h 57 min
Bit rate : 128 kb/s
Channel(s) : 2 channels
Channel positions : Front: L R
Sampling rate : 48.0 kHz
Frame rate : 46.875 FPS (1024 SPF)
Compression mode : Lossy
Delay relative to video : -21 ms
Stream size : 108 MiB (15%)
Title : Download Sui Dhaaga Made in India (2018) Hindi PDVDRip x264 AAC 700MB
Language : Hindi
Default : Yes
Forced : No

Visit Our Other Popular Post To Related This

Power Unlimited 2 (Touch Chesi Chudu) 2018 Dual Audio 480p HDRip [Hindi Telugu]
18+ X X X Uncensored (2018) S01 All 5 Episodes Hindi 720p HDRip x264 800mb
Power Unlimited 2 (Touch Chesi Chudu) 2018 Dual Audio 720p HDRip [Hindi Telugu]
Download Akira (2016) 720p UNCUT HDRip x264 [Dual Audio] [Hindi Telugu]
Zhongkui Snow Girl and the Dark Crystal (2015) Dual Audio 720p HDRip [Hindi Chinese] 1Gb
Download Saheb Biwi Aur Gangster 3 2018 Hindi 350MB HDRip 480p
Download Saheb Biwi Aur Gangster 3 2018 Hindi 720p HDRip 1Gb
Download Batti Gul Meter Chalu 2018 Hindi PreDvd Rip 700MB
Download Laila Majnu 2018 Hindi DVDScr 700MB x264 Full Movie
Download Mitron 2018 Hindi DVDScr 700 MB Free Moviesjug
Download Manmarziyaan 2018 Hindi pDVDRip 700MB- Moviesjug
Download Genius (2018) Propper Audio Hindi 720p HDRip x264 1.4GB ESubs
Rampage (2018) Dual Audio ORG 720p BRRip Hindi English DD 5.1ch 1GB
Download Ant Man and the Wasp 2018 Dual Audio Hindi English 480p HDTC 300mb
Click Here For Bing.com Searchengine
Click Here For Google.co.in
Click Here For Youtube.com

Download Sui Dhaaga Made in India (2018) Hindi PDVDRip x264 AAC 700MB

Download Sui Dhaaga Made in India (2018) Hindi PDVDRip x264 AAC 700MB

Download Sui Dhaaga Made in India (2018) Hindi PDVDRip x264 AAC 700MB

Leave a Reply

Your email address will not be published. Required fields are marked *