Download Saheb Biwi Aur Gangster 3 2018 Hindi 720p HDRip 1Gb

Download Saheb Biwi Aur Gangster 3 2018 Hindi 720p HDRip 1Gb
Saheb Biwi Aur Gangster 3 2018 Hindi Posters,pics,images,screeshots

Download Saheb Biwi Aur Gangster 3 2018 Hindi 720p HDRip 1Gb,Download Saheb Biwi Aur Gangster 3 2018 Hindi full movie in hd for free,download Saheb Biwi Aur Gangster 3 2018 Hindi movie in hd 720p,Saheb Biwi Aur Gangster 3 2018 Hindi full movie download in hd print,download Saheb Biwi Aur Gangster 3 2018 Hindi,Download Saheb Biwi Aur Gangster 3 2018 Hindi, Saheb Biwi Aur Gangster 3 2018 Hindi movie in 1080p 720p 480p,Saheb Biwi Aur Gangster 3 2018 Hindi movie download full hd in 300 mb,Saheb Biwi Aur Gangster 3 2018 Hindi movie download in 300MB,Saheb Biwi Aur Gangster 3 2018 Hindi full movie download in hd for pc for free,Saheb Biwi Aur Gangster 3 2018 Movie In hd, Download Saheb Biwi Aur Gangster 3 2018 Movie iN Full hd

Download Saheb Biwi Aur Gangster 3 2018 Hindi 720p HDRip 1Gb
Saheb Biwi Aur Gangster 3 2018 Hindi Posters,pics,images,screeshots

IMDB Rating: 4.6/10
Directed: Tigmanshu Dhulia
Released Date: 27 July 2018
Types: Action ,Crime ,Drama
Film Stars: Sanjay Dutt, Jimmy Sheirgill, Mahie Gill
Movie Quality: 720p HDRip
File Size: 1Gb

Storyline==}} The royal saga of deceit, conspiracy, greed and lust continues in the third installment of the series, as the Saheb and Biwi are pitted against an enemy and everyone involved is scheming ruthlessly for their own personal gain.

Download Saheb Biwi Aur Gangster 3 2018 Hindi 720p HDRip 1Gb
Saheb Biwi Aur Gangster 3 2018 Hindi Posters,pics,images,screeshots
Download Saheb Biwi Aur Gangster 3 2018 Hindi 720p HDRip 1Gb
Saheb Biwi Aur Gangster 3 2018 Hindi Posters,pics,images,screeshots

Download Saheb Biwi Aur Gangster 3 2018 Hindi 720p HDRip 1Gb

Download Links

Download From Openload
Download From Clicknupload
Download from Desiupload

Video And Audio Full Details (Properties)

General
Download Saheb Biwi Aur Gangster 3 2018 Hindi 720p HDRip 1Gb.mkv
Format : Matroska
Format version : Version 4 / Version 2
File size : 1.00 GiB
Duration : 2 h 14 min
Overall bit rate : 1 066 kb/s
Movie name : Download Saheb Biwi Aur Gangster 3 2018 Hindi 720p HDRip 1Gb

Video
ID : 1
Format : AVC
Format/Info : Advanced Video Codec
Format profile : [email protected]
Format settings : CABAC / 6 Ref Frames
Format settings, CABAC : Yes
Format settings, RefFrames : 6 frames
Codec ID : V_MPEG4/ISO/AVC
Duration : 2 h 14 min
Bit rate : 1 000 kb/s
Width : 1 280 pixels
Height : 720 pixels
Display aspect ratio : 16:9
Frame rate mode : Constant
Frame rate : 23.976 (24000/1001) FPS
Color space : YUV
Chroma subsampling : 4:2:0
Bit depth : 8 bits
Scan type : Progressive
Bits/(Pixel*Frame) : 0.045
Stream size : 963 MiB (94%)
Title : Download Saheb Biwi Aur Gangster 3 2018 Hindi 720p HDRip 1Gb
Language : Hindi
Default : Yes
Forced : No
Color range : Limited
Color primaries : BT.709
Transfer characteristics : BT.709
Matrix coefficients : BT.709

Audio
ID : 2
Format : AAC
Format/Info : Advanced Audio Codec
Format profile : LC
Codec ID : A_AAC-2
Duration : 2 h 14 min
Bit rate : 64.0 kb/s
Channel(s) : 2 channels
Channel positions : Front: L R
Sampling rate : 48.0 kHz
Frame rate : 46.875 FPS (1024 SPF)
Compression mode : Lossy
Stream size : 61.7 MiB (6%)
Title : Download Saheb Biwi Aur Gangster 3 2018 Hindi 720p HDRip 1Gb
Language : Hindi
Default : Yes
Forced : No

Visit Our Other Popular Post To Related This

Download Batti Gul Meter Chalu 2018 Hindi PreDvd Rip 700MB
Download Laila Majnu 2018 Hindi DVDScr 700MB x264 Full Movie
Download Mitron 2018 Hindi DVDScr 700 MB Free Moviesjug
Download WWE Hell In A Cell 2018 PPV HDTV 720p – Moviesjug
Download Manmarziyaan 2018 Hindi pDVDRip 700MB- Moviesjug
Download Genius (2018) Propper Audio Hindi 720p HDRip x264 1.4GB ESubs
Rampage (2018) Dual Audio ORG 720p BRRip Hindi English DD 5.1ch 1GB
Download Ant Man and the Wasp 2018 Dual Audio Hindi English 480p HDTC 300mb
Click Here For Bing.com Searchengine
Click Here For Google.co.in
Click Here For Youtube.com

Download Saheb Biwi Aur Gangster 3 2018 Hindi 720p HDRip 1Gb

Download Saheb Biwi Aur Gangster 3 2018 Hindi 720p HDRip 1Gb

Leave a Reply

Your email address will not be published. Required fields are marked *