Download Saheb Biwi Aur Gangster 3 2018 Hindi 350MB HDRip 480p

Download Saheb Biwi Aur Gangster 3 2018 Hindi 350MB HDRip 480p
Saheb Biwi Aur Gangster 3 2018 Hindi Posters,pics,images,screeshots

Download Saheb Biwi Aur Gangster 3 2018 Hindi 350MB HDRip 480p,Download Saheb Biwi Aur Gangster 3 2018 Hindi full movie in hd for free,download Saheb Biwi Aur Gangster 3 2018 Hindi movie in hd 480p,Saheb Biwi Aur Gangster 3 2018 Hindi full movie download in hd print,download Saheb Biwi Aur Gangster 3 2018 Hindi 480p 300mb,Download Saheb Biwi Aur Gangster 3 2018 Hindi, Saheb Biwi Aur Gangster 3 2018 Hindi movie in 1080p 720p 480p,Saheb Biwi Aur Gangster 3 2018 Hindi movie download full hd in 300 mb hd 500mb hd,Saheb Biwi Aur Gangster 3 2018 Hindi movie download in 300MB 480p,Saheb Biwi Aur Gangster 3 2018 Hindi full movie download in hd for pc for free,Saheb Biwi Aur Gangster 3 2018 Movie In hd 480p, Download Saheb Biwi Aur Gangster 3 2018 Movie iN Full hd 480p,

Download Saheb Biwi Aur Gangster 3 2018 Hindi 350MB HDRip 480p
Saheb Biwi Aur Gangster 3 2018 Hindi Posters,pics,images,screeshots

IMDB Rating: 4.6/10
Directed: Tigmanshu Dhulia
Released Date: 27 July 2018
Types: Action ,Crime ,Drama
Film Stars: Sanjay Dutt, Jimmy Sheirgill, Mahie Gill
Movie Quality: 480p HDRip
File Size: 400Mb

Storyline==}} The royal saga of deceit, conspiracy, greed and lust continues in the third installment of the series, as the Saheb and Biwi are pitted against an enemy and everyone involved is scheming ruthlessly for their own personal gain.

Download Saheb Biwi Aur Gangster 3 2018 Hindi 350MB HDRip 480p
Saheb Biwi Aur Gangster 3 2018 Hindi Posters,pics,images,screeshots
Download Saheb Biwi Aur Gangster 3 2018 Hindi 350MB HDRip 480p
Saheb Biwi Aur Gangster 3 2018 Hindi Posters,pics,images,screeshots

Download Saheb Biwi Aur Gangster 3 2018 Hindi 350MB HDRip 480p

Download Links

Download From Openload
Download From Clicknupload
Download from Desiupload

Video And Audio Full Details (Properties)

General
Download Saheb Biwi Aur Gangster 3 2018 Hindi 350MB HDRip 480p.mkv
Format : Matroska
Format version : Version 4 / Version 2
File size : 404 MiB
Duration : 2 h 14 min
Overall bit rate mode : Variable
Overall bit rate : 419 kb/s
Movie name : Download Saheb Biwi Aur Gangster 3 2018 Hindi 350MB HDRip 480p

Video
ID : 1
Format : AVC
Format/Info : Advanced Video Codec
Format profile : [email protected]
Format settings : CABAC / 4 Ref Frames
Format settings, CABAC : Yes
Format settings, RefFrames : 4 frames
Codec ID : V_MPEG4/ISO/AVC
Duration : 2 h 14 min
Bit rate : 322 kb/s
Width : 640 pixels
Height : 272 pixels
Display aspect ratio : 2.35:1
Frame rate mode : Constant
Frame rate : 25.000 FPS
Color space : YUV
Chroma subsampling : 4:2:0
Bit depth : 8 bits
Scan type : Progressive
Bits/(Pixel*Frame) : 0.074
Stream size : 310 MiB (77%)
Title : Download Saheb Biwi Aur Gangster 3 2018 Hindi 350MB HDRip 480p
Language : Hindi
Default : Yes
Forced : No

Audio
ID : 2
Format : MPEG Audio
Format version : Version 1
Format profile : Layer 3
Format settings : Joint stereo / MS Stereo
Codec ID : A_MPEG/L3
Codec ID/Hint : MP3
Duration : 2 h 14 min
Bit rate mode : Variable
Bit rate : 96.0 kb/s
Channel(s) : 2 channels
Sampling rate : 48.0 kHz
Frame rate : 41.667 FPS (1152 SPF)
Compression mode : Lossy
Stream size : 91.5 MiB (23%)
Title : Download Saheb Biwi Aur Gangster 3 2018 Hindi 350MB HDRip 480p
Language : Hindi
Default : Yes
Forced : No

Visit Our Other Popular Post To Related This

Download Saheb Biwi Aur Gangster 3 2018 Hindi 720p HDRip 1Gb
Download Batti Gul Meter Chalu 2018 Hindi PreDvd Rip 700MB
Download Laila Majnu 2018 Hindi DVDScr 700MB x264 Full Movie
Download Mitron 2018 Hindi DVDScr 700 MB Free Moviesjug
Download WWE Hell In A Cell 2018 PPV HDTV 720p – Moviesjug
Download Manmarziyaan 2018 Hindi pDVDRip 700MB- Moviesjug
Download Genius (2018) Propper Audio Hindi 720p HDRip x264 1.4GB ESubs
Rampage (2018) Dual Audio ORG 720p BRRip Hindi English DD 5.1ch 1GB
Download Ant Man and the Wasp 2018 Dual Audio Hindi English 480p HDTC 300mb
Click Here For Bing.com Searchengine
Click Here For Google.co.in
Click Here For Youtube.com

Download Saheb Biwi Aur Gangster 3 2018 Hindi 350MB HDRip 480p

Download Saheb Biwi Aur Gangster 3 2018 Hindi 350MB HDRip 480p

Leave a Reply

Your email address will not be published. Required fields are marked *