Download Pataakha 2018 Hindi Full Movie PDVDRip 700MB Free Moviesjug

Download Pataakha 2018 Hindi Full Movie PDVDRip 700MB Free Moviesjug
Pataakha (2018) hindi Movie Posters,Images,Pictures,Pics

Download Pataakha 2018 Hindi Full Movie PDVDRip 700MB Free Moviesjug,Download Pataakha full movie in hd for free,download Pataakha movie in hd 720p,Pataakha full movie download in hd print,download Pataakha movie in 1080p 720p 480p,Pataakha movie download full hd in 300 mb,Pataakha movie download in 700MB,Pataakha full movie download in hd for pc for free,Pataakha full movie download 720p openload,download full movie in hindi Pataakha 480p,Pataakha movie download openload,Pataakha full movie download,Pataakha movie in 480p,Pataakha free download full movie 700mb,Pataakha movie download 720p mb,Pataakha full movie download in 300mb,Pataakha full movie download 480p free,Pataakha full movie hd 480p download,Download Pataakha 2018 Hindi PDVDRip 700MB Free Moviesjug,
download full hindi movie Pataakha 720p 700mb,Pataakha full movie download free,Pataakha movie download 720p,new movie Pataakha Pataka Pataaka full hindi hd print download

Download Pataakha 2018 Hindi Full Movie PDVDRip 700MB Free Moviesjug
Pataakha 2018 hindi movie Poster,Images,Picture,Pics,Screenshots

IMDB Ratings: 7.7/453
Directed By: Vishal Bhardwaj
Writer: Vishal Bhardwaj, Charan Singh Pathik

Released Date: 12 October 2018 (India)
Genres: Comedy
Languages: Hindi
Film Stars: Vijay Raj, Sanya Malhotra, Radhika Madan, Sunil Grover
Movie Quality: PDVDRip
File Size: 700MB

 

Storyline==}} Based on Charan Singh Pathik’s short story Do Behnein, Pataakha narrates the story of two feuding sisters who realize the true nature of their relationship only after marriage separates them. (Download Pataakha 2018 Hindi Full Movie PDVDRip 700MB Free Moviesjug)

Download Pataakha 2018 Hindi Full Movie PDVDRip 700MB Free Moviesjug
Pataakha 2018 hindi movie Poster,Images,Picture,Pics,Screenshots
Download Pataakha 2018 Hindi Full Movie PDVDRip 700MB Free Moviesjug
Pataakha (2018) hindi Movie Posters,Images,Pictures,Pics
Download Pataakha 2018 Hindi Full Movie PDVDRip 700MB Free Moviesjug

Download Links

Download Pataakha 2018 Hindi Full Movie PDVDRip 700MB Free Moviesjug
Download Pataakha 2018 Hindi Full Movie PDVDRip 700MB Free Moviesjug

Download From Openload
Download From Clicknupload
Download From Desiupload
Download From Uploadfiles

Download Sample

 Download From Openload
Download From Clicknupload
Download From Desiupload
Download From Uploadfiles

Thanks for Downloading……

Download Venom (2018) Hindi Dubbed 720p DVDScr x264 800MB Free
Moviesjug.net

Visit Our Other Popular Post To Related This

Haseena (2018) Hindi AAC 720p HDRip x264 900 MB
Download Karwaan (2018) Hindi 720p HDRip 850Mb
Ant Man And The Wasp (2018) Dual Audio [Hindi Cleaned Eng] HDRip 720p x264 ESubs 1Gb
Download Dashing Diljala 2018 Hindi Dubbed 720p HDRip 850Mb
Download Mulk (2018) Hindi 720p HDRip x264 AAC 1.2Gb
Download Dhadak (2018) Hindi 720p HDRip x264 950Mb
Jurassic World Fallen Kingdom (2018) Hindi ORG Dual Audio 720p BluRay 1GB
Download Sui Dhaaga Made in India (2018) Hindi PDVDRip x264 AAC 700MB
Power Unlimited 2 (Touch Chesi Chudu) 2018 Dual Audio 480p HDRip [Hindi Telugu]
18+ X X X Uncensored (2018) S01 All 5 Episodes Hindi 720p HDRip x264 800mb
Power Unlimited 2 (Touch Chesi Chudu) 2018 Dual Audio 720p HDRip [Hindi Telugu]
Download Akira (2016) 720p UNCUT HDRip x264 [Dual Audio] [Hindi Telugu]
Zhongkui Snow Girl and the Dark Crystal (2015) Dual Audio 720p HDRip [Hindi Chinese] 1Gb
Download Saheb Biwi Aur Gangster 3 2018 Hindi 350MB HDRip 480p
Download Saheb Biwi Aur Gangster 3 2018 Hindi 720p HDRip 1Gb
Download Batti Gul Meter Chalu 2018 Hindi PreDvd Rip 700MB
Download Laila Majnu 2018 Hindi DVDScr 700MB x264 Full Movie
Download Mitron 2018 Hindi DVDScr 700 MB Free Moviesjug
Download Manmarziyaan 2018 Hindi pDVDRip 700MB- Moviesjug
Download Genius (2018) Propper Audio Hindi 720p HDRip x264 1.4GB ESubs
Rampage (2018) Dual Audio ORG 720p BRRip Hindi English DD 5.1ch 1GB
Click Here For Bing.com Searchengine
Click Here For Google.co.in
Click Here For Youtube.com

 Video And Audio Full Details (Properties)

General

Pataakha full movie hd 480p download,Download Pataakha 2018 Hindi PDVDRip 700MB Free Moviesjug,download full hindi movie Pataakha 720p 700mb,Fryday full movie download free,Pataakha movie download 720p,new movie Pataakha Pataka Pataaka full hindi hd print download
Download Pataakha 2018 Hindi Full Movie PDVDRip 700MB Free Moviesjug
Format : Matroska
Format version : Version 4 / Version 2
File size : 724 MiB
Duration : 2 h 7 min
Overall bit rate : 793 kb/s
Movie name : Download Pataakha 2018 Hindi Full Movie PDVDRip 700MB Free Moviesjug

Video
Pataakha full movie download in hd for pc for free,Pataakha full movie download 720p openload,download full movie in hindi Pataakha 480p,Pataakha movie download openload,Pataakha full movie download,Pataakha movie in 480p,Pataakha free download full movie 700mb,Pataakha movie download 720p mb,Pataakha full movie download in 300mb,Pataakha full movie download 480p free

ID : 1
Format : AVC
Format/Info : Advanced Video Codec
Format profile : [email protected]
Format settings : CABAC / 4 Ref Frames
Format settings, CABAC : Yes
Format settings, RefFrames : 4 frames
Codec ID : V_MPEG4/ISO/AVC
Duration : 2 h 7 min
Bit rate : 623 kb/s
Width : 688 pixels
Height : 300 pixels
Display aspect ratio : 2.25:1
Frame rate mode : Constant
Frame rate : 25.000 FPS
Color space : YUV
Chroma subsampling : 4:2:0
Bit depth : 8 bits
Scan type : Progressive
Bits/(Pixel*Frame) : 0.121
Stream size : 576 MiB (80%)
Title : Download Pataakha 2018 Hindi Full Movie PDVDRip 700MB Free Moviesjug
Default : Yes
Forced : No
Color range : Limited
Color primaries : BT.601 PAL
Transfer characteristics : BT.709
Matrix coefficients : BT.601

Audio
Download Pataakha 2018 Hindi Full Movie PDVDRip 700MB Free Moviesjugnt
ID : 2
Format : AAC
Format/Info : Advanced Audio Codec
Format profile : LC
Codec ID : A_AAC-2
Duration : 2 h 7 min
Bit rate : 160 kb/s
Channel(s) : 2 channels
Channel positions : Fro: L R
Sampling rate : 48.0 kHz
Frame rate : 46.875 FPS (1024 SPF)
Compression mode : Lossy
Delay relative to video : -21 ms
Stream size : 146 MiB (20%)
Title : Hindi
Default : Yes
Forced : No

Download Pataakha 2018 Hindi Full Movie PDVDRip 700MB Free Moviesjug,Download Pataakha full movie in hd for free,download Pataakha movie in hd 720p,Pataakha full movie download in hd print,download Pataakha movie in 1080p 720p 480p,Pataakha movie download full hd in 300 mb

Download Pataakha 2018 Hindi Full Movie PDVDRip 700MB Free Moviesjug

Download Pataakha 2018 Hindi Full Movie PDVDRip 700MB Free Moviesjug

Download Pataakha 2018 Hindi Full Movie PDVDRip 700MB Free Moviesjug

Leave a Reply

Your email address will not be published. Required fields are marked *