Download Naagin Season 03 EP 52 1st December 2018 720p/480p WebRip

DOWNLOAD EVERY SHOWS/SERIAL OF ‘ZEE5’, ‘HOTSTAR’, ‘VOOT’, ‘SONYLIV’, ONLY FROM THIS SITE AFTER 7 DECEMBER 2018

CLICK HERE FOR MORE INFORMATION  अधिक जानकारी के लिए यहां क्लिक करें।

 

Download Naagin Season 03 EP 52 1st December 2018 720p/480p WebRip
Download Naagin Season 03 EP 52 1st December 2018 720p/480p WebRip

Download Naagin Season 03 EP 52 1st December 2018 720p/480p WebRip,Naagin 03 EP 52 1st December 2018 episode download,new Naagin Season 03 episode download,Naagin Season 03 ep 52 download in hd for free, Naagin season 03 episode 52 1st December 2018 download free in full hd,Naagin Season 2018 episode 52 download for android, Naagin 2018 season 03 edisode 52 download 720p 480p hd, Naagin season 03 episode 52 full show download, Nagin Season  03 2018 download,Download Naagin Ep 52 1 December 2018,Download Naagin Latest Episode in Hd,Download Naagin episode 52 01st December 2018 Openload,Naagin Season 03 download All Episodes In Hd,Naagin Season 03 full episode download in hd openload 720p 480p,Naagin Season 03 download All Episodes In Hd Free,Download Naagin Season 03 EP 52 1st December 2018 720p/480p WebRip

Download Naagin Season 03 EP 52 1st December 2018 720p/480p WebRip
Download Naagin Season 03 EP 52 1st December 2018 720p/480p WebRip
Download Naagin Season 03 EP 52 1st December 2018 720p/480p WebRip

Show Name : Naagin Season 03
Genres: Supernatural ,Romance
Language: Hindi
Quality: [720p-300Mb][480p-180Mb] WebRip
Stars: Anita Hassanandani, Karishma Tanna, Surbhi Jyoti, Rajat Tokas

Storyline==}} Naagin 3 is an upcoming Indian television series. It will premiere on 2 June 2018 on Colors TV. It is produced by Balaji Telefilms. The series is the third season of Naagin after Naagin 1 and Naagin 2. Karishma Tanna, Rajat Tokas, Surbhi Jyoti , Anita Hassanandani , Pearl V Puri and Chetan Hansraj will be playing lead roles in the series.The Show will replace Chandrakanta (Download Naagin Season 03 EP 46 10th November 2018 720p WebRip 450MB)

Download Naagin Season 03 EP 52 1st December 2018 720p/480p WebRip
Download Naagin Season 03 EP 52 1st December 2018 720p/480p WebRip
Download Naagin Season 03 EP 52 1st December 2018 720p/480p WebRip
Download Naagin Season 03 EP 52 1st December 2018 720p/480p WebRip

Download Naagin Season 03 EP 52 1st December 2018 720p/480p WebRip

-=Watch Online Links=-

720p Online Links

Download From TusFiles
Download From Vidoza

480p Online Links

Download From TusFiles
Download From Vidoza

-=Download Links=-

Download Naagin Season 03 EP 52 1st December 2018 720p/480p WebRip
Download Naagin Season 03 EP 52 1st December 2018 720p/480p WebRip

-= Download Links 720p =-

Download From Filerio
Download From Desiupload
Download From TusFiles
Download From Vidoza
Download From Uploadfiles

-= Download Links 480p =-

Download From Filerio
Download From Desiupload
Download From TusFiles
Download From Vidoza
Download From Uploadfiles

Thanks for Downloading…………

Download Naagin Season 03 EP 52 1st December 2018 720p/480p WebRip
Download Naagin Season 03 EP 52 1st December 2018 720p/480p WebRip

Visit Our Other Popular Post To Related This

Goosebumps 2 (2018) Dual Audio 720p HDTS x264 [Hindi+English] 950 MB
Download Indian Idol Season 10 Episode 33 27 October 2018 HDTV 720p 800Mb
Hotel Transylvania 3 Summer Vacation 2018 Dual Audio ORG [Hindi English] 720p BluRay 850 MB
Skyscraper 2018 Dual Audio ORG Hindi 720p BluRay [Hindi English] 900 MB ESubs
Mohalla Assi 2018 Hindi HD Full Movie Free Download PDVDRip 700 MB
Baazaar 2018 HD Full Movie Free Download PDVDRip 700 MB
The Journey Of Karma 2018 HD Full Movie Free Download PDVDRip 700 MB (Poonam Pandey)
Haseena (2018) Hindi AAC 720p HDRip x264 900 MB
Download Karwaan (2018) Hindi 720p HDRip 850Mb
Ant Man And The Wasp (2018) Dual Audio [Hindi Cleaned Eng] HDRip 720p x264 ESubs 1Gb
Download Dashing Diljala 2018 Hindi Dubbed 720p HDRip 850Mb
Download Mulk (2018) Hindi 720p HDRip x264 AAC 1.2Gb
Download Dhadak (2018) Hindi 720p HDRip x264 950Mb
Jurassic World Fallen Kingdom (2018) Hindi ORG Dual Audio 720p BluRay 1GB
Download Sui Dhaaga Made in India (2018) Hindi PDVDRip x264 AAC 700MB
Power Unlimited 2 (Touch Chesi Chudu) 2018 Dual Audio 480p HDRip [Hindi Telugu]
18+ X X X Uncensored (2018) S01 All 5 Episodes Hindi 720p HDRip x264 800mb
Power Unlimited 2 (Touch Chesi Chudu) 2018 Dual Audio 720p HDRip [Hindi Telugu]
Download Akira (2016) 720p UNCUT HDRip x264 [Dual Audio] [Hindi Telugu]
Zhongkui Snow Girl and the Dark Crystal (2015) Dual Audio 720p HDRip [Hindi Chinese] 1Gb
Download Saheb Biwi Aur Gangster 3 2018 Hindi 350MB HDRip 480p
Download Saheb Biwi Aur Gangster 3 2018 Hindi 720p HDRip 1Gb
Download Batti Gul Meter Chalu 2018 Hindi PreDvd Rip 700MB
Download Laila Majnu 2018 Hindi DVDScr 700MB x264 Full Movie
Download Mitron 2018 Hindi DVDScr 700 MB Free Moviesjug
Download Manmarziyaan 2018 Hindi pDVDRip 700MB- Moviesjug
Download Genius (2018) Propper Audio Hindi 720p HDRip x264 1.4GB ESubs
Rampage (2018) Dual Audio ORG 720p BRRip Hindi English DD 5.1ch 1GB
Click Here For Bing.com Searchengine
Click Here For Google.co.in
Click Here For Youtube.com

Video And Audio Full Details (Properties)

General
Naagin S03 Ep 52 [Moviesjug.net] 01 DEC 2018 WEBRip 480p.mkv
Format : Matroska
Format version : Version 4 / Version 2
File size : 203 MiB
Duration : 42 min 31 s
Overall bit rate : 667 kb/s
Movie name : Downloaded From [Moviesjug.net]

Video
ID : 1
Format : AVC
Format/Info : Advanced Video Codec
Format profile : [email protected]
Format settings : 1 Ref Frames
Format settings, CABAC : No
Format settings, RefFrames : 1 frame
Codec ID : V_MPEG4/ISO/AVC
Duration : 42 min 30 s
Bit rate : 600 kb/s
Width : 640 pixels
Height : 360 pixels
Display aspect ratio : 16:9
Frame rate mode : Constant
Frame rate : 25.000 FPS
Color space : YUV
Chroma subsampling : 4:2:0
Bit depth : 8 bits
Scan type : Progressive
Bits/(Pixel*Frame) : 0.104
Stream size : 183 MiB (90%)
Title : Downloaded From [Moviesjug.net]
Writing library : x264 core 152
Language : Hindi
Default : Yes
Forced : No

Audio
ID : 2
Format : AAC
Format/Info : Advanced Audio Codec
Format profile : LC
Codec ID : A_AAC-2
Duration : 42 min 31 s
Bit rate : 64.0 kb/s
Channel(s) : 2 channels
Channel positions : Front: L R
Sampling rate : 44.1 kHz
Frame rate : 43.066 FPS (1024 SPF)
Compression mode : Lossy
Stream size : 19.5 MiB (10%)
Title : Downloaded From [Moviesjug.net]
Language : Hindi
Default : Yes
Forced : No

Download Naagin Season 03 EP 52 1st December 2018 720p/480p WebRip

Download Naagin Season 03 EP 52 1st December 2018 720p/480p WebRip

Download Naagin Season 03 EP 52 1st December 2018 720p/480p WebRip
Summary
Article Name
Download Naagin Season 03 EP 52 1st December 2018 720p/480p WebRip
Description
Download Naagin Season 03 EP 52 1st December 2018 720p/480p WebRip,Naagin 03 EP 52 1st December 2018 episode download,new Naagin Season 03 episode download,Naagin Season 03 ep 52 download in hd for free, Naagin season 03 episode 52 1st December 2018 download free in full hd,Naagin Season 2018 episode 52 download for android, Naagin 2018 season 03 edisode 52 download 720p 480p hd, Naagin season 03 episode 52 full show download,
Author
Publisher Name
Moviesjug.net

Leave a Reply

Your email address will not be published. Required fields are marked *