Download Mulk (2018) Hindi 720p HDRip x264 AAC 1.2Gb

Download Mulk (2018) Hindi 720p HDRip x264 AAC 1.2Gb
Mulk (2018) Hindi Movie Poster,Images,Picture,Pics,Screenshots

Download Mulk (2018) Hindi 720p HDRip x264 AAC 1.2Gb,Download Mulk (2018) Hindi full movie in hd for free,download Mulk (2018) Hindi movie in hd 720p,Mulk (2018) Hindi full movie download in hd print,download Mulk (2018) Hindi,Download Mulk (2018) Hindi 1Gb, Mulk (2018) Hindi movie in 1080p 720p 480p,Mulk (2018) Hindi movie download full hd in 300 mb,Mulk (2018) Hindi movie download in 300MB,Mulk (2018) Hindi full movie download in hd for pc for free,Mulk (2018) Hindi Movie In hd, Download Mulk (2018) Hindi Movie in Full hd,

Download Mulk (2018) Hindi 720p HDRip x264 AAC 1.2Gb
Mulk (2018) Hindi Movie Poster,Images,Picture,Pics,Screenshots

IMDB Ratings: 5.6/10
Genres: Drama
Language: Hindi
Quality: 720p HDRip
Size: 1.2Gb
Director: Anubhav Sinha
Writers: Anubhav Sinha
Stars: Tapsee Pannu, Abdul Quadir Amin, Rishi Kapoor

Storyline==}} One family member tries to help her own family which are trapped in a dark controversy.
The youngest son of a Muslim family settled in Benaras gets involved in terrorist activities, leading to a bomb blast massacre. His actions have an adverse effect on the family who are left to defend themselves as people who are innocent and not anti-nationals

Download Mulk (2018) Hindi 720p HDRip x264 AAC 1.2Gb
Mulk (2018) Hindi Movie Poster,Images,Picture,Pics,Screenshots
Download Mulk (2018) Hindi 720p HDRip x264 AAC 1.2Gb
Mulk (2018) Hindi Movie Poster,Images,Picture,Pics,Screenshots

Download Mulk (2018) Hindi 720p HDRip x264 AAC 1.2Gb

Download Links

Download From Openload
Download From Clicknupload
Download from Desiupload

Visit Our Other Popular Post To Related This

Download Dhadak (2018) Hindi 720p HDRip x264 950Mb
Jurassic World Fallen Kingdom (2018) Hindi ORG Dual Audio 720p BluRay 1GB
Download Sui Dhaaga Made in India (2018) Hindi PDVDRip x264 AAC 700MB
Power Unlimited 2 (Touch Chesi Chudu) 2018 Dual Audio 480p HDRip [Hindi Telugu]
18+ X X X Uncensored (2018) S01 All 5 Episodes Hindi 720p HDRip x264 800mb
Power Unlimited 2 (Touch Chesi Chudu) 2018 Dual Audio 720p HDRip [Hindi Telugu]
Download Akira (2016) 720p UNCUT HDRip x264 [Dual Audio] [Hindi Telugu]
Zhongkui Snow Girl and the Dark Crystal (2015) Dual Audio 720p HDRip [Hindi Chinese] 1Gb
Download Saheb Biwi Aur Gangster 3 2018 Hindi 350MB HDRip 480p
Download Saheb Biwi Aur Gangster 3 2018 Hindi 720p HDRip 1Gb
Download Batti Gul Meter Chalu 2018 Hindi PreDvd Rip 700MB
Download Laila Majnu 2018 Hindi DVDScr 700MB x264 Full Movie
Download Mitron 2018 Hindi DVDScr 700 MB Free Moviesjug
Download Manmarziyaan 2018 Hindi pDVDRip 700MB- Moviesjug
Download Genius (2018) Propper Audio Hindi 720p HDRip x264 1.4GB ESubs
Rampage (2018) Dual Audio ORG 720p BRRip Hindi English DD 5.1ch 1GB
Click Here For Bing.com Searchengine
Click Here For Google.co.in
Click Here For Youtube.com

Video And Audio Full Details (Properties)

General
Download Mulk (2018) Hindi 720p HDRip x264 AAC 1.2Gb.mkv
Format : Matroska
Format version : Version 4 / Version 2
File size : 1.24 GiB
Duration : 2 h 14 min
Overall bit rate : 1 316 kb/s
Movie name : Download Mulk (2018) Hindi 720p HDRip x264 AAC 1.2Gb

Video
ID : 1
Format : AVC
Format/Info : Advanced Video Codec
Format profile : [email protected]
Format settings : CABAC / 4 Ref Frames
Format settings, CABAC : Yes
Format settings, RefFrames : 4 frames
Codec ID : V_MPEG4/ISO/AVC
Duration : 2 h 14 min
Bit rate : 1 258 kb/s
Width : 1 280 pixels
Height : 536 pixels
Display aspect ratio : 2.40:1
Frame rate mode : Constant
Frame rate : 25.000 FPS
Color space : YUV
Chroma subsampling : 4:2:0
Bit depth : 8 bits
Scan type : Progressive
Bits/(Pixel*Frame) : 0.073
Stream size : 1.18 GiB (96%)
Title : Download Mulk (2018) Hindi 720p HDRip x264 AAC 1.2Gb
Language : Hindi
Default : Yes
Forced : No

Audio
ID : 2
Format : MPEG Audio
Format version : Version 1
Format profile : Layer 3
Format settings : Joint stereo / MS Stereo
Codec ID : A_MPEG/L3
Codec ID/Hint : MP3
Duration : 2 h 14 min
Bit rate mode : Constant
Bit rate : 56.0 kb/s
Channel(s) : 2 channels
Sampling rate : 48.0 kHz
Frame rate : 41.667 FPS (1152 SPF)
Compression mode : Lossy
Delay relative to video : 23 ms
Stream size : 53.9 MiB (4%)
Title : Download Mulk (2018) Hindi 720p HDRip x264 AAC 1.2Gb
Language : Hindi
Default : Yes
Forced : No

Download Mulk (2018) Hindi 720p HDRip x264 AAC 1.2Gb

Download Mulk (2018) Hindi 720p HDRip x264 AAC 1.2Gb

Download Mulk (2018) Hindi 720p HDRip x264 AAC 1.2Gb

Leave a Reply

Your email address will not be published. Required fields are marked *