Download Mortal Engines 2018 HDTS 720p Dual Audio [Hindi + English] x264 1Gb

Download Mortal Engines 2018 HDTS 720p Dual Audio [Hindi + English] x264 1Gb
Download Mortal Engines 2018 HDTS 720p Dual Audio [Hindi + English] x264 1Gb

Download Mortal Engines 2018 HDTS 720p Dual Audio [Hindi + English] x264 1Gb,Mortal Engines (2018) movie hindi  audio download 720p,Mortal Engines (2018) hd movie free org print download,Mortal Engines (2018) full movie in hd download,Mortal Engines (2018) origional hd movie free download,download movie Mortal Engines (2018) print in hd,Mortal Engines (2018) full movie download in full hd 1080p,Mortal Engines (2018) original print full hd movie download filmywap,Mortal Engines (2018) full movie download 720p dual audio org free,(Download Mortal Engines 2018 HDTS 720p Dual Audio [Hindi + English] x264 1Gb),Mortal Engines (2018) full hd org movie download 720p in hindi Audios,Mortal Engines (2018) movie download in hindi origional mp4,Mortal Engines (2018)full movie download utorrent free download in full hd,Download Mortal Engines 2018 HDTS 720p Dual Audio [Hindi + English] x264 1Gb

Download Mortal Engines 2018 HDTS 720p Dual Audio [Hindi + English] x264 1Gb

IMDB Ratings: 6.9/10 [Votes= 1,777]
Genres: Action, Adventure, Fantasy
Release Date : 14 December 2018 (USA)

Language: [Hindi + English]
Quality: 720p HDTS
Size: 1 GB
Director: Christian Rivers
Writer: Fran Walsh, Philippa Boyens
Stars: Hera Hilmar, Hugo Weaving, Jihae

Storyline==}} A mysterious young woman named Hester Shaw joins forces with Anna Fang, a dangerous outlaw with a bounty on her head, and Tom Natsworthy, an outcast from London, to lead a rebellion against a giant predator city on wheels. (Download Mortal Engines 2018 HDTS 720p Dual Audio [Hindi + English] x264 1Gb)

Download Mortal Engines 2018 HDTS 720p Dual Audio [Hindi + English] x264 1Gb

Download Mortal Engines 2018 HDTS 720p Dual Audio [Hindi + English] x264 1Gb

Download Mortal Engines 2018 HDTS 720p Dual Audio [Hindi + English] x264 1Gb
Download Mortal Engines 2018 HDTS 720p Dual Audio [Hindi + English] x264 1Gb


Download Mortal Engines 2018 HDTS 720p Dual Audio [Hindi + English] x264 1Gb

-=Watch Online Links=-

Download From Vidoza
Download From TusFiles
Download Mortal Engines 2018 HDTS 720p Dual Audio [Hindi + English] x264 1Gb

-=Download Links=-

Download Mortal Engines 2018 HDTS 720p Dual Audio [Hindi + English] x264 1Gb

Download From Openload
Download From Filerio
Download from Desiupload
Download From TusFiles
Download From Vidoza
Download from UploadFiles

Thanks for Downloading…………

Download Mortal Engines 2018 HDTS 720p Dual Audio [Hindi + English] x264 1Gb

Visit Our Other Popular Post To Related This

The Journey Of Karma 2018 HD Full Movie Free Download PDVDRip 700 MB
Incredibles 2 2018 Dual Audio [Hindi English] 480p HDRip 450Mb ESubs
Power Unlimited 2 2018 ORG Dual Audio UNCUT 480p HDRip [Hindi Telugu]
Power Unlimited 2 2018 UNCUT ORG Dual Audio 720p HDRip [Hindi Telugu]
Download Game of Thrones S02 Complete Dual Audio Hindi BluRay 720p
Download The Flash S01 Complete Dual Audio Hindi 720p BluRay
Download Indian Idol Season 10 Episode 32 21st October 2018 720p HDTV 800Mb
Download Indian Idol Season 10 Episode 31 20th October 2018 720p HDTV 800Mb
Download Comedy Circus 2018 Episode 11 20th October 2018 720p HDTV 400Mb
Download Comedy Circus 2018 Episode 12 21st October 2018 720p HDTV 400Mb
Downlolad Sanju (2018) Hindi HDTVRip 480p x264 400 MB ESub Free
Download Jalebi 2018 Hindi Full Movie PDVDRip 700MB Free Moviesjug
Download Mitron 2018 Hindi DVDScr 700 MB Free Moviesjug
Download Fryday 2018 Hindi Full Movie PDVDRip 700MB Free Moviesjug
Download Pataakha 2018 Hindi Full Movie PDVDRip 700MB Free Moviesjug
Download Helicopter Eela 2018 Hindi Full Movie PDVDRip 700MB Free
Download FryDay (2018) Hindi 720p VER 2 AAC HQ DVD SCR x264 1.5 GB
Downlolad Soorma (2018) Hindi HDRip 720p AAC 1.2 GB ESub Free
Download L7 (2018) Hindi Dubbed 720p HDRip x264 900MB
Download Game of Thrones S02 Complete Dual Audio Hindi BluRay 720p
Download The Flash S01 Complete Dual Audio Hindi 720p BluRay
Download WWE Smackdown Live 09 October 2018 HDTV 480p 300MB
Download WWE Monday Night Raw 08 October 2018 HDTV 800mb
Haseena (2018) Hindi AAC 720p HDRip x264 900 MB
Download Karwaan (2018) Hindi 720p HDRip 850Mb
Ant Man And The Wasp (2018) Dual Audio [Hindi Cleaned Eng] HDRip 720p x264 ESubs 1Gb
Download Dashing Diljala 2018 Hindi Dubbed 720p HDRip 850Mb
Download Mulk (2018) Hindi 720p HDRip x264 AAC 1.2Gb
Download Dhadak (2018) Hindi 720p HDRip x264 950Mb
Jurassic World Fallen Kingdom (2018) Hindi ORG Dual Audio 720p BluRay 1GB
Download Sui Dhaaga Made in India (2018) Hindi PDVDRip x264 AAC 700MB
Download Akira (2016) 720p UNCUT HDRip x264 [Dual Audio] [Hindi Telugu]
Zhongkui Snow Girl and the Dark Crystal (2015) Dual Audio 720p HDRip [Hindi Chinese] 1Gb
Download Saheb Biwi Aur Gangster 3 2018 Hindi 350MB HDRip 480p
Download Saheb Biwi Aur Gangster 3 2018 Hindi 720p HDRip 1Gb
Download Batti Gul Meter Chalu 2018 Hindi PreDvd Rip 700MB
Download Laila Majnu 2018 Hindi DVDScr 700MB x264 Full Movie
Download Mitron 2018 Hindi DVDScr 700 MB Free Moviesjug
Download WWE Hell In A Cell 2018 PPV HDTV 720p – Moviesjug
Download Manmarziyaan 2018 Hindi pDVDRip 700MB- Moviesjug
Download Genius (2018) Propper Audio Hindi 720p HDRip x264 1.4GB ESubs
Rampage (2018) Dual Audio ORG 720p BRRip Hindi English DD 5.1ch 1GB
Download Ant Man and the Wasp 2018 Dual Audio Hindi English 480p HDTC 300mb
Click Here For Bing.com Searchengine
Click Here For Google.co.in
Click Here For Youtube.com

Video And Audio Full Details (Properties)

General
Mortal Engines (2018) [Moviesjug.net] HDTS 720p Dual Audio [Hindi + English] x264 1Gb.mkv
Format : Matroska
Format version : Version 4 / Version 2
File size : 1.15 GiB
Duration : 1 h 58 min
Overall bit rate : 1 398 kb/s
Movie name : Downloaded From [Moviesjug.net]

Video
ID : 1
Format : AVC
Format/Info : Advanced Video Codec
Format profile : [email protected]
Format settings : CABAC / 5 Ref Frames
Format settings, CABAC : Yes
Format settings, RefFrames : 5 frames
Codec ID : V_MPEG4/ISO/AVC
Duration : 1 h 58 min
Bit rate : 1 139 kb/s
Width : 1 276 pixels
Height : 532 pixels
Display aspect ratio : 2.40:1
Frame rate mode : Constant
Frame rate : 23.976 (24000/1001) FPS
Color space : YUV
Chroma subsampling : 4:2:0
Bit depth : 8 bits
Scan type : Progressive
Bits/(Pixel*Frame) : 0.070
Stream size : 962 MiB (81%)
Title : Downloaded From [Moviesjug.net]
Language : English
Default : Yes
Forced : No
Color range : Limited
Color primaries : BT.709
Transfer characteristics : BT.709
Matrix coefficients : BT.709

Audio #1
ID : 2
Format : AAC
Format/Info : Advanced Audio Codec
Format profile : LC
Codec ID : A_AAC-2
Duration : 1 h 58 min
Bit rate : 128 kb/s
Channel(s) : 2 channels
Channel positions : Front: L R
Sampling rate : 48.0 kHz
Frame rate : 46.875 FPS (1024 SPF)
Compression mode : Lossy
Delay relative to video : 12 ms
Stream size : 108 MiB (9%)
Title : Downloaded From [Moviesjug.net]
Language : Hindi
Default : Yes
Forced : Yes

Audio #2
ID : 3
Format : AAC
Format/Info : Advanced Audio Codec
Format profile : LC
Codec ID : A_AAC-2
Duration : 1 h 58 min
Bit rate : 129 kb/s
Channel(s) : 2 channels
Channel positions : Front: L R
Sampling rate : 48.0 kHz
Frame rate : 46.875 FPS (1024 SPF)
Compression mode : Lossy
Delay relative to video : 33 ms
Stream size : 109 MiB (9%)
Title : Downloaded From [Moviesjug.net]
Language : English
Default : No
Forced : No

Download Mortal Engines 2018 HDTS 720p Dual Audio [Hindi + English] x264 1Gb

Download Mortal Engines 2018 HDTS 720p Dual Audio [Hindi + English] x264 1Gb

Download Mortal Engines 2018 HDTS 720p Dual Audio [Hindi + English] x264 1Gb
Summary
Article Name
Download Mortal Engines 2018 HDTS 720p Dual Audio [Hindi + English] x264 1Gb
Description
Download Mortal Engines 2018 HDTS 720p Dual Audio [Hindi + English] x264 1Gb,Mortal Engines (2018) movie hindi audio download 720p,Mortal Engines (2018) hd movie free org print download,Mortal Engines (2018) full movie in hd download,Mortal Engines (2018) origional hd movie free download,download movie Mortal Engines (2018) print in hd,Mortal Engines (2018) full movie download in full hd 1080p,Mortal Engines (2018) original print full hd movie download filmywap,
Author
Publisher Name
Moviesjug.Net

Leave a Reply

Your email address will not be published. Required fields are marked *