Download Manmarziyaan 2018 Hindi pDVDRip 700MB- Moviesjug

Download Manmarziyaan 2018 Hindi pDVDRip 700MB- Moviesjug
Manmarziyaan 2018 Hindi Posters,pics,images,screeshots

Download Manmarziyaan 2018 Hindi pDVDRip 700MB- Moviesjug,Download Manmarziyaan movie in full hd 720p, download Manmarziyaan movie 2018 full movie in full hd for mobile, download Manmarziyaan in 720p for pc, downliad Manmarziyaan 2018 movie in hd print, Manmarziyaan movie ne print download in hd for free, Manmarziyaan movie free download for free, download Manmarziyaan movie in 300 mb, Manmarziyaan movie download full hd in 300 mb, 2018 movie Manmarziyaan full download, Manmarziyaan movie download , download Manmarziyaan movie in full hd latest print, download Manmarziyaan movie in 720p 1080p 480p hdrip brrip dvd rip, download Manmarziyaan movie origional print.

Download Manmarziyaan 2018 Hindi pDVDRip 700MB- Moviesjug
Manmarziyaan 2018 Hindi Posters,pics,images,screeshots

IMDB Ratings: 7.5/10
Genres: Romance
Language: Hindi
Quality: pDVDRip
Size: 698MB
Director: Anurag Kashyap
Writer: Kanika Dhillon
Stars: Abhishek Bachchan, Vicky Kaushal, Tapsee Pannu

Storyline==}}  The film is a love story set in Punjab where Abhishek Bachchan, Taapsee Pannu, and Vicky Kaushal will be seen in prominent roles.

Download Manmarziyaan 2018 Hindi pDVDRip 700MB- Moviesjug
Manmarziyaan 2018 Hindi Posters,pics,images,screeshots
Download Manmarziyaan 2018 Hindi pDVDRip 700MB- Moviesjug
Manmarziyaan 2018 Hindi Posters,pics,images,screeshots

Download Print Sample 10 MB

Download Print Sample 10 MB From Openload
Download Print Sample 10 MB From Clicknupload
Download Print Sample 10 MB From Desiupload

Download Links

Download From Openload
Download From Clicknupload
Download From Desiupload

Download Manmarziyaan 2018 Hindi pDVDRip 700MB- Moviesjug

Video And Audio Full Details (Properties)

General
Download Manmarziyaan 2018 Hindi pDVDRip 700MB- Moviesjug
Format : Matroska
Format version : Version 4 / Version 2
File size : 773 MiB
Duration : 2 h 28 min
Overall bit rate : 730 kb/s
Movie name : Download Manmarziyaan 2018 Hindi pDVDRip 700MB- Moviesjug

Video
ID : 1
Format : AVC
Format/Info : Advanced Video Codec
Format profile : [email protected]
Format settings : CABAC / 4 Ref Frames
Format settings, CABAC : Yes
Format settings, RefFrames : 4 frames
Codec ID : V_MPEG4/ISO/AVC
Duration : 2 h 28 min
Bit rate : 499 kb/s
Width : 688 pixels
Height : 300 pixels
Display aspect ratio : 2.25:1
Frame rate mode : Constant
Frame rate : 25.000 FPS
Color space : YUV
Chroma subsampling : 4:2:0
Bit depth : 8 bits
Scan type : Progressive
Bits/(Pixel*Frame) : 0.097
Stream size : 528 MiB (68%)
Title : Download Manmarziyaan 2018 Hindi pDVDRip 700MB- Moviesjug
Writing library : x264 core 148 r2708 86b7198
Language : Hindi
Default : Yes
Forced : No
Color range : Limited
Color primaries : BT.601 PAL
Transfer characteristics : BT.709
Matrix coefficients : BT.601

Audio
ID : 2
Format : AAC
Format/Info : Advanced Audio Codec
Format profile : LC
Codec ID : A_AAC-2
Duration : 2 h 28 min
Bit rate : 229 kb/s
Channel(s) : 2 channels
Channel positions : Front: L R
Sampling rate : 44.1 kHz
Frame rate : 43.066 FPS (1024 SPF)
Compression mode : Lossy
Delay relative to video : -23 ms
Stream size : 243 MiB (31%)
Title : Download Manmarziyaan 2018 Hindi pDVDRip 700MB- Moviesjug
Default : Yes
Forced : No

Visit Our Other Popular Post To Related This


Download WWE Hell In A Cell 2018 PPV HDTV 720p – Moviesjug
Download Genius (2018) Propper Audio Hindi 480p HDRip x264 400 MB
Download Genius (2018) Hindi 720p HDRip x264 1.4GB ESubs

Download Robot 2.0 2018 Hindi Dubbed Teaser In HD 1080p 720p 480p 360p
Tere Liye MP3 Song 320Kbps Atif Aslam And Akanksha Bhandari
Download Tere Liye Song HD Namaste England 2018 1080p 720p 480p BY Atif Aslam
WWE Smackdown Live 11 September 2018 HDTV 720p 900 MB
WWE Monday Night Raw 10 September 2018 HDTV 480p 700mb
Download Ant Man and the Wasp 2018 Dual Audio Hindi English 480p HDTC 300mb
Rampage (2018) Dual Audio ORG 720p BRRip Hindi English DD 5.1ch 1GB
Click Here For Bing.com Searchengine
Click Here For Google.co.in
Click Here For Youtube.com

Download Manmarziyaan 2018 Hindi pDVDRip 700MB- Moviesjug

Download Manmarziyaan 2018 Hindi pDVDRip 700MB- Moviesjug

Download Manmarziyaan 2018 Hindi pDVDRip 700MB- Moviesjug

 

 

 

 

 

 

 

 

 

 

 

 

 

 

 

Summary
Article Name
Download Manmarziyaan 2018 Hindi pDVDRip 700MB- Moviesjug
Description
Download Manmarziyaan 2018 Hindi pDVDRip 700MB- Moviesjug,Download Manmarziyaan movie in full hd 720p, download Manmarziyaan movie 2018 full movie in full hd for mobile, download Manmarziyaan in 720p for pc, downliad Manmarziyaan 2018 movie in hd print, Manmarziyaan movie ne print download in hd for free, Manmarziyaan movie free download for free, download Manmarziyaan movie in 300 mb, Manmarziyaan movie download full hd in 300 mb, 2018 movie Manmarziyaan full download, Manmarziyaan movie download , download Manmarziyaan movie in full hd latest print, download Manmarziyaan movie in 720p 1080p 480p hdrip brrip dvd rip, download Manmarziyaan movie origional print.
Author
Publisher Name
Moviesjug.net

Leave a Reply

Your email address will not be published. Required fields are marked *