Download L7 (2018) Hindi Dubbed 720p HDRip x264 900MB

Download L7 (2018) Hindi Dubbed 720p HDRip x264 900MB
L7 2018 Movie Posters,Images,Pics,Pictures,Screenshots

Download L7 (2018) Hindi Dubbed 720p HDRip x264 900MB,Download L7 (2018) Hindi Dubbed full movie in hd for free,download L7 (2018) Hindi Dubbed movie in hd 720p,L7 (2018) Hindi Dubbed full movie download in hd print,download L7 (2018) Hindi movie in 1080p 720p 480p,L7 (2018) Hindi Dubbed movie download full hd in 300 mb,L7 (2018) Hindi Dubbed movie download in 700MB,L7 (2018) Hindi Dubbed full movie download in hd for pc for free,L7 (2018) Hindi Dubbed full movie download 720p openload,download full movie in hindi L7 (2018) 480p,L7 (2018) Latest Hindi Dubbed movie download openload,L7 (2018) Hindi Dubbed full movie download,L7 (2018) Hindi Dubbed movie in 480p,L7 (2018) Hindi Dubbed free download full movie 900mb,L7 (2018) Hindi Dubbed movie download 720p mb,L7 (2018) Hindi Dubbed full movie download in 300mb,L7 (2018) Hindi Dubbed full movie download 480p free,L7 (2018) Hindi Dubbed full movie hd 480pdownload,Download L7 (2018) Hindi Dubbed Free Moviesjug,download full hindi movie L7 (2018) 720p 1Gb,L7 (2018) Hindi Dubbed full movie download free,L7 (2018) Hindi Dubbed movie download 720p,

Download L7 (2018) Hindi Dubbed 720p HDRip x264 900MB
L7 2018 Movie Posters,Images,Pics,Pictures,Screenshots

IMDB Ratings: 4.8/10
Directed: Mukund Pandey
Released Date: 21 October 2016 (India)
Genres:  Thriller,Horror,Drama
Languages: Hindi ,
Film Stars:  Ajay, Adith Arun, Pooja Jhaveri
Movie Quality: 720p HDRip
File Size: 920MB

Storyline==}} A man must go to great lengths to save his wife.

Download L7 (2018) Hindi Dubbed 720p HDRip x264 900MB
L7 2018 Movie Posters,Images,Pics,Pictures,Screenshots
Download L7 (2018) Hindi Dubbed 720p HDRip x264 900MB
L7 2018 Movie Posters,Images,Pics,Pictures,Screenshots

Download L7 (2018) Hindi Dubbed 720p HDRip x264 900MB

Download Links

Download L7 (2018) Hindi Dubbed 720p HDRip x264 900MB
L7 2018 Movie Posters,Images,Pics,Pictures,Screenshots

Download From Openload
Download from Clicknupload
Download from Desiupload

Thanks for Downloading…………

Download L7 (2018) Hindi Dubbed 720p HDRip x264 900MB
L7 2018 Movie Posters,Images,Pics,Pictures,Screenshots

Visit Our Other Popular Post To Related This

Download Game of Thrones S02 Complete Dual Audio Hindi BluRay 720p
Download The Flash S01 Complete Dual Audio Hindi 720p BluRay
Download WWE Smackdown Live 09 October 2018 HDTV 480p 300MB
Download WWE Monday Night Raw 08 October 2018 HDTV 800mb
Haseena (2018) Hindi AAC 720p HDRip x264 900 MB
Download Karwaan (2018) Hindi 720p HDRip 850Mb
Ant Man And The Wasp (2018) Dual Audio [Hindi Cleaned Eng] HDRip 720p x264 ESubs 1Gb
Download Dashing Diljala 2018 Hindi Dubbed 720p HDRip 850Mb
Download Mulk (2018) Hindi 720p HDRip x264 AAC 1.2Gb
Download Dhadak (2018) Hindi 720p HDRip x264 950Mb
Jurassic World Fallen Kingdom (2018) Hindi ORG Dual Audio 720p BluRay 1GB
Download Sui Dhaaga Made in India (2018) Hindi PDVDRip x264 AAC 700MB
Power Unlimited 2 (Touch Chesi Chudu) 2018 Dual Audio 480p HDRip [Hindi Telugu]
18+ X X X Uncensored (2018) S01 All 5 Episodes Hindi 720p HDRip x264 800mb
Power Unlimited 2 (Touch Chesi Chudu) 2018 Dual Audio 720p HDRip [Hindi Telugu]
Download Akira (2016) 720p UNCUT HDRip x264 [Dual Audio] [Hindi Telugu]
Zhongkui Snow Girl and the Dark Crystal (2015) Dual Audio 720p HDRip [Hindi Chinese] 1Gb
Download Saheb Biwi Aur Gangster 3 2018 Hindi 350MB HDRip 480p
Download Saheb Biwi Aur Gangster 3 2018 Hindi 720p HDRip 1Gb
Download Batti Gul Meter Chalu 2018 Hindi PreDvd Rip 700MB
Download Laila Majnu 2018 Hindi DVDScr 700MB x264 Full Movie
Download Mitron 2018 Hindi DVDScr 700 MB Free Moviesjug
Download Manmarziyaan 2018 Hindi pDVDRip 700MB- Moviesjug
Download Genius (2018) Propper Audio Hindi 720p HDRip x264 1.4GB ESubs
Rampage (2018) Dual Audio ORG 720p BRRip Hindi English DD 5.1ch 1GB
Click Here For Bing.com Searchengine
Click Here For Google.co.in
Click Here For Youtube.com

Video And Audio Full Details (Properties)

General
Download L7 (2018) Hindi Dubbed 720p HDRip x264 900MB
Format : Matroska
Format version : Version 4 / Version 2
File size : 921 MiB
Duration : 1 h 46 min
Overall bit rate : 1 203 kb/s
Movie name : Download L7 (2018) Hindi Dubbed 720p HDRip x264 900MB

Video
ID : 1
Format : AVC
Format/Info : Advanced Video Codec
Format profile : [email protected]
Format settings : CABAC / 3 Ref Frames
Format settings, CABAC : Yes
Format settings, RefFrames : 3 frames
Codec ID : V_MPEG4/ISO/AVC
Duration : 1 h 46 min
Bit rate : 1 075 kb/s
Width : 1 280 pixels
Height : 720 pixels
Display aspect ratio : 16:9
Frame rate mode : Constant
Frame rate : 25.000 FPS
Color space : YUV
Chroma subsampling : 4:2:0
Bit depth : 8 bits
Scan type : Progressive
Bits/(Pixel*Frame) : 0.047
Stream size : 823 MiB (89%)
Title : Download L7 (2018) Hindi Dubbed 720p HDRip x264 900MB
Language : Hindi
Default : Yes
Forced : No
Color range : Limited
Color primaries : BT.709
Transfer characteristics : BT.709
Matrix coefficients : BT.709

Audio
ID : 2
Format : AAC
Format/Info : Advanced Audio Codec
Format profile : LC
Codec ID : A_AAC-2
Duration : 1 h 46 min
Bit rate : 126 kb/s
Channel(s) : 2 channels
Channel positions : Front: L R
Sampling rate : 44.1 kHz
Frame rate : 43.066 FPS (1024 SPF)
Compression mode : Lossy
Stream size : 96.1 MiB (10%)
Title : Download L7 (2018) Hindi Dubbed 720p HDRip x264 900MB
Language : Hindi
Default : Yes
Forced : No

Download L7 (2018) Hindi Dubbed 720p HDRip x264 900MB

Download L7 (2018) Hindi Dubbed 720p HDRip x264 900MB

Leave a Reply

Your email address will not be published. Required fields are marked *