Download Kedarnath 2018 Hindi Full Movie PDVDRip 700MB Free Moviesjug

Download Kedarnath 2018 Hindi Full Movie PDVDRip 700MB Free Moviesjug
Download Kedarnath 2018 Hindi Full Movie PDVDRip 700MB Free Moviesjug

Download Kedarnath 2018 Hindi Full Movie PDVDRip 700MB Free Moviesjug,Download Kedarnath full movie in hd for free,download Kedarnath movie in hd 720p,Kedarnath full movie download in hd print,download Kedarnath movie in 1080p 720p 480p,Kedarnath movie download full hd in 300 mb,Kedarnath movie download in 700MB,Kedarnath full movie download in hd for pc for free,Kedarnath full movie download 720p openload,download full movie in hindi Kedarnath 480p,Kedarnath movie download openload,Kedarnath full movie download,Kedarnath movie in 480p,Kedarnath free download full movie 700mb,Kedarnath movie download 720p mb,Kedarnath full movie download in 300mb,Kedarnath full movie download 480p free,Kedarnath full movie hd 480p download,Download Kedarnath 2018 Hindi PDVDRip 700MB Free Moviesjug,
download full hindi movie Kedarnath 720p 700mb,Kedarnath full movie download free,Kedarnath movie download 720p,new movie Kedarnath Khedarnath Kadarnath Kedaarnath Kedarnaath Kedaarnaath Khedarnaath full hindi hd print download

Download Kedarnath 2018 Hindi Full Movie PDVDRip 700MB Free Moviesjug

Download Kedarnath 2018 Hindi Full Movie PDVDRip 700MB Free Moviesjug

IMDB Ratings: 5.4/10 [Votes 1,661]
Directed: Abhishek Kapoor
Released Date: 07 December 2018 (India)
Genres: Romance, Drama,
Languages: Hindi
Film Stars: Sushant Singh Rajput, Sara Ali Khan, Nitish Bharadwaj
Movie Quality: PDVDRip
File Size: 700MB

Storyline==}} A Hindu-Muslim love story, Kedarnath portrays how a Muslim pithoo saves a Hindu tourist from the Uttrakhand floods at the pilgrimage, and the love that eventually develops between them. (Download Kedarnath 2018 Hindi Full Movie PDVDRip 700MB Free Moviesjug)

Download Kedarnath 2018 Hindi Full Movie PDVDRip 700MB Free Moviesjug

Download Kedarnath 2018 Hindi Full Movie PDVDRip 700MB Free Moviesjug
Download Kedarnath 2018 Hindi Full Movie PDVDRip 700MB Free Moviesjug
Download Kedarnath 2018 Hindi Full Movie PDVDRip 700MB Free Moviesjug

-=Watch Online Links=-

Online Links Will Be Updated Soon……

Download From Openload
Download From Vidoza
Download From TusFiles

-=Download Links=-

Download Kedarnath 2018 Hindi Full Movie PDVDRip 700MB Free Moviesjug

Download From Openload
Download From Filerio
Download From Desiupload
Download From Vidoza
Download From TusFiles
Download From Clicknupload
Download From Uploadfiles

Thanks for Downloading……

Download Kedarnath 2018 Hindi Full Movie PDVDRip 700MB Free Moviesjug

Visit Our Other Popular Post To Related This

Haseena (2018) Hindi AAC 720p HDRip x264 900 MB
Download Karwaan (2018) Hindi 720p HDRip 850Mb
Ant Man And The Wasp (2018) Dual Audio [Hindi Cleaned Eng] HDRip 720p x264 ESubs 1Gb
Download Dashing Diljala 2018 Hindi Dubbed 720p HDRip 850Mb
Download Mulk (2018) Hindi 720p HDRip x264 AAC 1.2Gb
Download Dhadak (2018) Hindi 720p HDRip x264 950Mb
Jurassic World Fallen Kingdom (2018) Hindi ORG Dual Audio 720p BluRay 1GB
Download Sui Dhaaga Made in India (2018) Hindi PDVDRip x264 AAC 700MB
Power Unlimited 2 (Touch Chesi Chudu) 2018 Dual Audio 480p HDRip [Hindi Telugu]
18+ X X X Uncensored (2018) S01 All 5 Episodes Hindi 720p HDRip x264 800mb
Power Unlimited 2 (Touch Chesi Chudu) 2018 Dual Audio 720p HDRip [Hindi Telugu]
Download Akira (2016) 720p UNCUT HDRip x264 [Dual Audio] [Hindi Telugu]
Zhongkui Snow Girl and the Dark Crystal (2015) Dual Audio 720p HDRip [Hindi Chinese] 1Gb
Download Saheb Biwi Aur Gangster 3 2018 Hindi 350MB HDRip 480p
Download Saheb Biwi Aur Gangster 3 2018 Hindi 720p HDRip 1Gb
Download Batti Gul Meter Chalu 2018 Hindi PreDvd Rip 700MB
Download Laila Majnu 2018 Hindi DVDScr 700MB x264 Full Movie
Download Mitron 2018 Hindi DVDScr 700 MB Free Moviesjug
Download Manmarziyaan 2018 Hindi pDVDRip 700MB- Moviesjug
Download Genius (2018) Propper Audio Hindi 720p HDRip x264 1.4GB ESubs
Rampage (2018) Dual Audio ORG 720p BRRip Hindi English DD 5.1ch 1GB
Click Here For Bing.com Searchengine
Click Here For Google.co.in
Click Here For Youtube.com

Video And Audio Full Details (Properties)

General
Kedarnath 2018 [MoviesJug.Net] Hindi PDVDRip 700MB.mkv
Format : Matroska
Format version : Version 4 / Version 2
File size : 722 MiB
Duration : 1 h 47 min
Overall bit rate : 939 kb/s
Movie name : Downloaded From [MoviesJug.Net]

Video
ID : 1
Format : AVC
Format/Info : Advanced Video Codec
Format profile : [email protected]
Format settings : CABAC / 4 Ref Frames
Format settings, CABAC : Yes
Format settings, RefFrames : 4 frames
Codec ID : V_MPEG4/ISO/AVC
Duration : 1 h 47 min
Bit rate : 840 kb/s
Width : 720 pixels
Height : 360 pixels
Display aspect ratio : 2.000
Frame rate mode : Constant
Frame rate : 16.660 FPS
Color space : YUV
Chroma subsampling : 4:2:0
Bit depth : 8 bits
Scan type : Progressive
Bits/(Pixel*Frame) : 0.195
Stream size : 646 MiB (90%)
Title : Downloaded From [MoviesJug.Net]
Writing library : x264 core 155
Language : Hindi
Default : Yes
Forced : No
Color range : Limited
Color primaries : BT.601 NTSC
Transfer characteristics : BT.709
Matrix coefficients : BT.601

Audio
ID : 2
Format : MPEG Audio
Format version : Version 1
Format profile : Layer 3
Format settings : Joint stereo
Codec ID : A_MPEG/L3
Codec ID/Hint : MP3
Duration : 1 h 47 min
Bit rate mode : Constant
Bit rate : 96.0 kb/s
Channel(s) : 2 channels
Sampling rate : 44.1 kHz
Frame rate : 38.281 FPS (1152 SPF)
Compression mode : Lossy
Delay relative to video : -25 ms
Stream size : 73.8 MiB (10%)
Title : Downloaded From [MoviesJug.Net]
Language : Hindi
Default : Yes
Forced : No

Download Kedarnath 2018 Hindi Full Movie PDVDRip 700MB Free Moviesjug

Download Kedarnath 2018 Hindi Full Movie PDVDRip 700MB Free Moviesjug

Download Kedarnath 2018 Hindi Full Movie PDVDRip 700MB Free Moviesjug

Summary
Article Name
Download Kedarnath 2018 Hindi Full Movie PDVDRip 700MB Free Moviesjug
Description
Download Kedarnath 2018 Hindi Full Movie PDVDRip 700MB Free Moviesjug,Download Kedarnath full movie in hd for free,download Kedarnath movie in hd 720p,Kedarnath full movie download in hd print,download Kedarnath movie in 1080p 720p 480p,Kedarnath movie download full hd in 300 mb,Kedarnath movie download in 700MB,Kedarnath full movie download in hd for pc for free,Kedarnath full movie download 720p openload,
Author
Publisher Name
Moviesjug.net

Leave a Reply

Your email address will not be published. Required fields are marked *