Download Kedarnath 2018 Hindi Full Movie PDVDRip 700MB Free Moviesjug

Download Kedarnath 2018 Hindi Full Movie PDVDRip 700MB Free Moviesjug
Download Kedarnath 2018 Hindi Full Movie PDVDRip 700MB Free Moviesjug

“Yes ! New Print is Available” See Below

Download Kedarnath 2018 Hindi Full Movie PDVDRip 700MB Free Moviesjug,Download Kedarnath full movie in hd for free,download Kedarnath movie in hd 720p,Kedarnath full movie download in hd print,download Kedarnath movie in 1080p 720p 480p,Kedarnath movie download full hd in 300 mb,Kedarnath movie download in 700MB,Kedarnath full movie download in hd for pc for free,Kedarnath full movie download 720p openload,download full movie in hindi Kedarnath 480p,Kedarnath movie download openload,Kedarnath full movie download,Kedarnath movie in 480p,Kedarnath free download full movie 700mb,Kedarnath movie download 720p mb,Kedarnath full movie download in 300mb,Kedarnath full movie download 480p free,Kedarnath full movie hd 480p download,Download Kedarnath 2018 Hindi PDVDRip 700MB Free Moviesjug,
download full hindi movie Kedarnath 720p 700mb,Kedarnath full movie download free,Kedarnath movie download 720p,new movie Kedarnath Khedarnath Kadarnath Kedaarnath Kedarnaath Kedaarnaath Khedarnaath full hindi hd print download

Download Kedarnath 2018 Hindi Full Movie PDVDRip 700MB Free Moviesjug

Download Kedarnath 2018 Hindi Full Movie PDVDRip 700MB Free Moviesjug

IMDB Ratings: 5.4/10 [Votes 1,661]
Directed: Abhishek Kapoor
Released Date: 07 December 2018 (India)
Genres: Romance, Drama,
Languages: Hindi
Film Stars: Sushant Singh Rajput, Sara Ali Khan, Nitish Bharadwaj
Movie Quality: HDRip 720p
File Size: 900 MB

Storyline==}} A Hindu-Muslim love story, Kedarnath portrays how a Muslim pithoo saves a Hindu tourist from the Uttrakhand floods at the pilgrimage, and the love that eventually develops between them. (Download Kedarnath 2018 Hindi Full Movie PDVDRip 700MB Free Moviesjug)

Download Kedarnath 2018 Hindi Full Movie PDVDRip 700MB Free Moviesjug

Download Kedarnath 2018 Hindi Full Movie HDRip 900 MB Free Moviesjug

-= “WATCH ONLINE AND DOWNLOAD LINKS” =-

Bombairiya 2019 HD Movie 720P 1GB Download/Watch Free

-= “ 720p Watch Online Links” =-

(Use “Google Chrome” Browser For Better Online Watch Or Stream)

Watch From Rapivideo
Watch From Nxload
Watch From Flix555.com 
Watch From Filescdn 

-= “720p Download Links” =-

Download From Clicknupload
Download From nxload
Download From Uploadfiles
Download From Filescdn 
Download From Flix555.com 

Thanks for Downloading……

Visit Our Other Popular Post To Related This

Haseena (2018) Hindi AAC 720p HDRip x264 900 MB
Download Karwaan (2018) Hindi 720p HDRip 850Mb
Download Dhadak (2018) Hindi 720p HDRip x264 950Mb
Jurassic World Fallen Kingdom (2018) Hindi ORG Dual Audio 720p BluRay 1GB
Rampage (2018) Dual Audio ORG 720p BRRip Hindi English DD 5.1ch 1GB
Click Here For Bing.com Searchengine
Click Here For Google.co.in
Click Here For Youtube.com

Video And Audio Full Details (Properties)

General
Download Kedarnath 2018 Hindi Full Movie PDVDRip 700MB Free Moviesjug
Format : Matroska
Format version : Version 4 / Version 2
File size : 929 MiB
Duration : 1 h 53 min
Overall bit rate : 1 141 kb/s
Movie name : Download Kedarnath 2018 Hindi Full Movie PDVDRip 700MB Free Moviesjug

Video
ID : 1
Format : AVC
Format/Info : Advanced Video Codec
Format profile : [email protected]
Format settings : CABAC / 8 Ref Frames
Format settings, CABAC : Yes
Format settings, RefFrames : 8 frames
Codec ID : V_MPEG4/ISO/AVC
Duration : 1 h 53 min
Bit rate : 1 050 kb/s
Width : 1 280 pixels
Height : 544 pixels
Display aspect ratio : 2.35:1
Frame rate mode : Constant
Frame rate : 25.000 FPS
Color space : YUV
Chroma subsampling : 4:2:0
Bit depth : 8 bits
Scan type : Progressive
Bits/(Pixel*Frame) : 0.060
Stream size : 849 MiB (91%)
Title : Downloaded From [Moviesjug.net]
Writing library : x264 core 142 r2479 dd79a61
Download Kedarnath 2018 Hindi Full Movie PDVDRip 700MB Free MoviesjugLanguage : Hindi
Default : Yes
Forced : No
Color range : Limited
Color primaries : BT.709
Transfer characteristics : BT.709
Matrix coefficients : BT.709

Audio
ID : 2
Format : AAC
Format/Info : Advanced Audio Codec
Format profile : HE-AAC / LC
Format settings : NBC
Codec ID : A_AAC-5
Duration : 1 h 53 min
Bit rate : 96.0 kb/s
Channel(s) : 2 channels
Channel positions : Front: L R
Sampling rate : 48.0 kHz / 24.0 kHz
Frame rate : 23.438 FPS (1024 SPF)
Compression mode : Lossy
Delay relative to video : -105 ms
Stream size : 78.2 MiB (8%)
Title : Download Kedarnath 2018 Hindi Full Movie PDVDRip 700MB Free Moviesjug
Language : Hindi
Default : Yes
Forced : No

Download Kedarnath 2018 Hindi Full Movie PDVDRip 700MB Free Moviesjug

Download Kedarnath 2018 Hindi Full Movie PDVDRip 700MB Free Moviesjug

Download Kedarnath 2018 Hindi Full Movie PDVDRip 700MB Free Moviesjug

Summary
Article Name
Download Kedarnath 2018 Hindi Full Movie PDVDRip 700MB Free Moviesjug
Description
Download Kedarnath 2018 Hindi Full Movie PDVDRip 700MB Free Moviesjug,Download Kedarnath full movie in hd for free,download Kedarnath movie in hd 720p,Kedarnath full movie download in hd print,download Kedarnath movie in 1080p 720p 480p,Kedarnath movie download full hd in 300 mb,Kedarnath movie download in 700MB,Kedarnath full movie download in hd for pc for free,Kedarnath full movie download 720p openload,
Author
Publisher Name
Moviesjug.net

Leave a Reply

Your email address will not be published. Required fields are marked *